  0
SECTION
  2
HEADER
  9
$ACADVER
  1
AC1015
  9
$ACADMAINTVER
 70
    20
  9
$DWGCODEPAGE
  3
ANSI_950
  9
$INSBASE
 10
0.0
 20
0.0
 30
0.0
  9
$EXTMIN
 10
98.9769794294483
 20
-0.009058534263545
 30
-0.0000610002294508
  9
$EXTMAX
 10
198.0308602212026
 20
145.0215349626205
 30
2.000061053783838
  9
$LIMMIN
 10
0.0
 20
0.0
  9
$LIMMAX
 10
420.0
 20
297.0
  9
$ORTHOMODE
 70
     1
  9
$REGENMODE
 70
     1
  9
$FILLMODE
 70
     1
  9
$QTEXTMODE
 70
     0
  9
$MIRRTEXT
 70
     1
  9
$LTSCALE
 40
1.0
  9
$ATTMODE
 70
     1
  9
$TEXTSIZE
 40
1.3
  9
$TRACEWID
 40
1.0
  9
$TEXTSTYLE
  7
Standard
  9
$CLAYER
  8
標註線
  9
$CELTYPE
  6
ByLayer
  9
$CECOLOR
 62
   256
  9
$CELTSCALE
 40
1.0
  9
$DISPSILH
 70
     0
  9
$DIMSCALE
 40
0.5
  9
$DIMASZ
 40
3.5
  9
$DIMEXO
 40
1.199999999999999
  9
$DIMDLI
 40
0.38
  9
$DIMRND
 40
0.0
  9
$DIMDLE
 40
0.0
  9
$DIMEXE
 40
1.199999999999999
  9
$DIMTP
 40
0.0
  9
$DIMTM
 40
0.0
  9
$DIMTXT
 40
3.5
  9
$DIMCEN
 40
0.09
  9
$DIMTSZ
 40
0.0
  9
$DIMTOL
 70
     0
  9
$DIMLIM
 70
     0
  9
$DIMTIH
 70
     0
  9
$DIMTOH
 70
     0
  9
$DIMSE1
 70
     0
  9
$DIMSE2
 70
     0
  9
$DIMTAD
 70
     3
  9
$DIMZIN
 70
     8
  9
$DIMBLK
  1
Open30
  9
$DIMASO
 70
     1
  9
$DIMSHO
 70
     1
  9
$DIMPOST
  1

  9
$DIMAPOST
  1

  9
$DIMALT
 70
     0
  9
$DIMALTD
 70
     2
  9
$DIMALTF
 40
25.4
  9
$DIMLFAC
 40
1.0
  9
$DIMTOFL
 70
     1
  9
$DIMTVP
 40
0.0
  9
$DIMTIX
 70
     0
  9
$DIMSOXD
 70
     0
  9
$DIMSAH
 70
     0
  9
$DIMBLK1
  1

  9
$DIMBLK2
  1

  9
$DIMSTYLE
  2
STANDARD NET
  9
$DIMCLRD
 70
   256
  9
$DIMCLRE
 70
   256
  9
$DIMCLRT
 70
     3
  9
$DIMTFAC
 40
1.0
  9
$DIMGAP
 40
1.199999999999999
  9
$DIMJUST
 70
     0
  9
$DIMSD1
 70
     0
  9
$DIMSD2
 70
     0
  9
$DIMTOLJ
 70
     1
  9
$DIMTZIN
 70
     0
  9
$DIMALTZ
 70
     0
  9
$DIMALTTZ
 70
     0
  9
$DIMUPT
 70
     0
  9
$DIMDEC
 70
     2
  9
$DIMTDEC
 70
     2
  9
$DIMALTU
 70
     2
  9
$DIMALTTD
 70
     2
  9
$DIMTXSTY
  7
Standard
  9
$DIMAUNIT
 70
     0
  9
$DIMADEC
 70
     2
  9
$DIMALTRND
 40
0.0
  9
$DIMAZIN
 70
     2
  9
$DIMDSEP
 70
    46
  9
$DIMATFIT
 70
     3
  9
$DIMFRAC
 70
     0
  9
$DIMLDRBLK
  1
Open30
  9
$DIMLUNIT
 70
     2
  9
$DIMLWD
 70
    -2
  9
$DIMLWE
 70
    -2
  9
$DIMTMOVE
 70
     0
  9
$LUNITS
 70
     2
  9
$LUPREC
 70
     2
  9
$SKETCHINC
 40
1.0
  9
$FILLETRAD
 40
0.0
  9
$AUNITS
 70
     0
  9
$AUPREC
 70
     0
  9
$MENU
  1
.
  9
$ELEVATION
 40
0.0
  9
$PELEVATION
 40
0.0
  9
$THICKNESS
 40
0.0
  9
$LIMCHECK
 70
     0
  9
$CHAMFERA
 40
0.0
  9
$CHAMFERB
 40
0.0
  9
$CHAMFERC
 40
20.0
  9
$CHAMFERD
 40
0.0
  9
$SKPOLY
 70
     0
  9
$TDCREATE
 40
2452787.461415857
  9
$TDUCREATE
 40
2452787.128082523
  9
$TDUPDATE
 40
2459230.734809838
  9
$TDUUPDATE
 40
2459230.401476505
  9
$TDINDWG
 40
1.0377687731
  9
$TDUSRTIMER
 40
1.0377641088
  9
$USRTIMER
 70
     1
  9
$ANGBASE
 50
0.0
  9
$ANGDIR
 70
     0
  9
$PDMODE
 70
     0
  9
$PDSIZE
 40
0.0
  9
$PLINEWID
 40
0.0
  9
$SPLFRAME
 70
     0
  9
$SPLINETYPE
 70
     6
  9
$SPLINESEGS
 70
     8
  9
$HANDSEED
  5
A021
  9
$SURFTAB1
 70
     6
  9
$SURFTAB2
 70
     6
  9
$SURFTYPE
 70
     6
  9
$SURFU
 70
     6
  9
$SURFV
 70
     6
  9
$UCSBASE
  2

  9
$UCSNAME
  2

  9
$UCSORG
 10
0.0
 20
0.0
 30
0.0
  9
$UCSXDIR
 10
1.0
 20
0.0
 30
0.0
  9
$UCSYDIR
 10
0.0
 20
1.0
 30
0.0
  9
$UCSORTHOREF
  2

  9
$UCSORTHOVIEW
 70
     1
  9
$UCSORGTOP
 10
0.0
 20
0.0
 30
0.0
  9
$UCSORGBOTTOM
 10
0.0
 20
0.0
 30
0.0
  9
$UCSORGLEFT
 10
0.0
 20
0.0
 30
0.0
  9
$UCSORGRIGHT
 10
0.0
 20
0.0
 30
0.0
  9
$UCSORGFRONT
 10
0.0
 20
0.0
 30
0.0
  9
$UCSORGBACK
 10
0.0
 20
0.0
 30
0.0
  9
$PUCSBASE
  2

  9
$PUCSNAME
  2

  9
$PUCSORG
 10
0.0
 20
0.0
 30
0.0
  9
$PUCSXDIR
 10
1.0
 20
0.0
 30
0.0
  9
$PUCSYDIR
 10
0.0
 20
1.0
 30
0.0
  9
$PUCSORTHOREF
  2

  9
$PUCSORTHOVIEW
 70
     0
  9
$PUCSORGTOP
 10
0.0
 20
0.0
 30
0.0
  9
$PUCSORGBOTTOM
 10
0.0
 20
0.0
 30
0.0
  9
$PUCSORGLEFT
 10
0.0
 20
0.0
 30
0.0
  9
$PUCSORGRIGHT
 10
0.0
 20
0.0
 30
0.0
  9
$PUCSORGFRONT
 10
0.0
 20
0.0
 30
0.0
  9
$PUCSORGBACK
 10
0.0
 20
0.0
 30
0.0
  9
$USERI1
 70
     0
  9
$USERI2
 70
     0
  9
$USERI3
 70
     0
  9
$USERI4
 70
     0
  9
$USERI5
 70
     0
  9
$USERR1
 40
0.0
  9
$USERR2
 40
0.0
  9
$USERR3
 40
0.0
  9
$USERR4
 40
0.0
  9
$USERR5
 40
0.0
  9
$WORLDVIEW
 70
     1
  9
$SHADEDGE
 70
     3
  9
$SHADEDIF
 70
    70
  9
$TILEMODE
 70
     1
  9
$MAXACTVP
 70
    48
  9
$PINSBASE
 10
0.0
 20
0.0
 30
0.0
  9
$PLIMCHECK
 70
     0
  9
$PEXTMIN
 10
1.000000000000000E+20
 20
1.000000000000000E+20
 30
1.000000000000000E+20
  9
$PEXTMAX
 10
-1.000000000000000E+20
 20
-1.000000000000000E+20
 30
-1.000000000000000E+20
  9
$PLIMMIN
 10
0.0
 20
0.0
  9
$PLIMMAX
 10
420.0
 20
297.0
  9
$UNITMODE
 70
     0
  9
$VISRETAIN
 70
     1
  9
$PLINEGEN
 70
     0
  9
$PSLTSCALE
 70
     1
  9
$TREEDEPTH
 70
  3020
  9
$CMLSTYLE
  2
Standard
  9
$CMLJUST
 70
     0
  9
$CMLSCALE
 40
20.0
  9
$PROXYGRAPHICS
 70
     1
  9
$MEASUREMENT
 70
     1
  9
$CELWEIGHT
370
    -1
  9
$ENDCAPS
280
     0
  9
$JOINSTYLE
280
     0
  9
$LWDISPLAY
290
     0
  9
$INSUNITS
 70
     4
  9
$HYPERLINKBASE
  1

  9
$STYLESHEET
  1
LIN.ctb
  9
$XEDIT
290
     1
  9
$CEPSNTYPE
380
     0
  9
$PSTYLEMODE
290
     1
  9
$FINGERPRINTGUID
  2
{5BDD02C0-903B-11D7-82B1-0040F4716458}
  9
$VERSIONGUID
  2
{D1F63257-45E5-465B-ACEE-0BD64B4788E0}
  9
$EXTNAMES
290
     1
  9
$PSVPSCALE
 40
0.0
  9
$OLESTARTUP
290
     0
  0
ENDSEC
  0
SECTION
  2
CLASSES
  0
CLASS
  1
ACDBDICTIONARYWDFLT
  2
AcDbDictionaryWithDefault
  3
ObjectDBX Classes
 90
        0
280
     0
281
     0
  0
CLASS
  1
DICTIONARYVAR
  2
AcDbDictionaryVar
  3
ObjectDBX Classes
 90
        0
280
     0
281
     0
  0
CLASS
  1
TABLESTYLE
  2
AcDbTableStyle
  3
ObjectDBX Classes
 90
     4095
280
     0
281
     0
  0
CLASS
  1
MATERIAL
  2
AcDbMaterial
  3
ObjectDBX Classes
 90
     1153
280
     0
281
     0
  0
CLASS
  1
VISUALSTYLE
  2
AcDbVisualStyle
  3
ObjectDBX Classes
 90
     4095
280
     0
281
     0
  0
CLASS
  1
SCALE
  2
AcDbScale
  3
ObjectDBX Classes
 90
     1153
280
     0
281
     0
  0
CLASS
  1
MLEADERSTYLE
  2
AcDbMLeaderStyle
  3
ACDB_MLEADERSTYLE_CLASS
 90
     4095
280
     0
281
     0
  0
CLASS
  1
AMGSETTINGSOBJ
  2
AmgSettingsObj
  3
"AcadM|Product Description: AutoCAD Mechanical|Company: Autodesk, Inc."
 90
     1024
280
     0
281
     0
  0
CLASS
  1
ACME_DOCUMENT
  2
AcMeDbDoc
  3
AcMeServices
 90
     1024
280
     0
281
     0
  0
CLASS
  1
ACMESCOPE
  2
AcMeScope
  3
AcMeServices
 90
     1024
280
     0
281
     0
  0
CLASS
  1
ACMECOMMANDHISTORY
  2
AcMeCommandHistory
  3
AcMeServices
 90
     1024
280
     0
281
     0
  0
CLASS
  1
ACIMSYSVARMAN
  2
AcImSysVarManager
  3
AcMeServices
 90
     1024
280
     0
281
     0
  0
CLASS
  1
ACIMINTSYSVAR
  2
AcImIntSysVar
  3
AcMeServices
 90
     1024
280
     0
281
     0
  0
CLASS
  1
ACMESTATEMGR
  2
AcMeStateMgr
  3
AcMeServices
 90
     1024
280
     0
281
     0
  0
CLASS
  1
ACDBENTITYCACHE
  2
AcMeEntityCache
  3
AcMeServices
 90
     1024
280
     0
281
     0
  0
CLASS
  1
ACGREFMASTER
  2
AcGrefMaster
  3
AcAttribServices
 90
     1024
280
     0
281
     0
  0
CLASS
  1
AM_DRAWING_MGR
  2
AcDmDwgMgr
  3
AcMechDwgViewMgmt
 90
     1024
280
     0
281
     0
  0
CLASS
  1
AM_DWG_DOCUMENT
  2
AcDmDwgDocument
  3
AcMechDwgViewMgmt
 90
     1024
280
     0
281
     0
  0
CLASS
  1
AM_DWG_SHEET
  2
AcDmSheet
  3
AcMechDwgViewMgmt
 90
     1024
280
     0
281
     0
  0
CLASS
  1
AM_VIEWDIMPARMAP
  2
AcDmViewDimParMap
  3
AcMechDwgViewMgmt
 90
     1024
280
     0
281
     0
  0
CLASS
  1
AMDTINTERNALREACTOR
  2
AmdtInternalReactor
  3
AcMeServices
 90
     1024
280
     0
281
     0
  0
CLASS
  1
ACIMREALSYSVAR
  2
AcImRealSysVar
  3
AcMeServices
 90
     1024
280
     0
281
     0
  0
CLASS
  1
AM_DWGMGR_NAME
  2
AcDmDwgMgrName
  3
AcMechDwgViewMgmt
 90
     1024
280
     0
281
     0
  0
CLASS
  1
ACME_DATABASE
  2
AcMeDbDatabase
  3
AcMeServices
 90
     1024
280
     0
281
     0
  0
CLASS
  1
ACRFINSADJUSTERMGR
  2
AcRfInsAdjusterMgr
  3
AcMeServices
 90
     1024
280
     0
281
     0
  0
CLASS
  1
ACGREFACADMASTER
  2
AcGrefacadMaster
  3
AcGrefServices
 90
     1024
280
     0
281
     0
  0
CLASS
  1
AMDTMENUSTATEMGR
  2
AmdtMenuStateMgr
  3
McadcomServices
 90
     1024
280
     0
281
     0
  0
CLASS
  1
AMDTMCOMMENUSTATE
  2
AmdtMcomMenuState
  3
McadcomServices
 90
     1024
280
     0
281
     0
  0
CLASS
  1
AMIMASTER
  2
AmiMaster
  3
AmiServices
 90
     1024
280
     0
281
     0
  0
CLASS
  1
MAPIAMMOUDLE
  2
MApiAmModule
  3
MApiAmServices
 90
     1024
280
     0
281
     0
  0
CLASS
  1
ACIMSTRSYSVAR
  2
AcImStrSysVar
  3
AcMeServices
 90
     1024
280
     0
281
     0
  0
CLASS
  1
AMDTDMMENUSTATE
  2
AmdtDmMenuState
  3
AcMechDwgViewMgmt
 90
     1024
280
     0
281
     0
  0
CLASS
  1
AMDTAMMENUSTATE
  2
AmdtAmMenuState
  3
DesignerAssemblies
 90
     1024
280
     0
281
     0
  0
CLASS
  1
ACAMPROJECT
  2
AcAmProject
  3
DesignerAssemblies
 90
     1024
280
     0
281
     0
  0
CLASS
  1
ACAMGRCOMPDEF
  2
AcAmGrCompDef
  3
DesignerAssemblies
 90
     1024
280
     0
281
     0
  0
CLASS
  1
ACAMCOMPDEF
  2
AcAmCompDef
  3
DesignerAssemblies
 90
     1024
280
     0
281
     0
  0
CLASS
  1
ACAMCOMPDEFMGR
  2
AcAmCompDefMgr
  3
DesignerAssemblies
 90
     1024
280
     0
281
     0
  0
CLASS
  1
AMCONTEXTMGR
  2
AcAmContextMgr
  3
DesignerAssemblies
 90
     1024
280
     0
281
     0
  0
CLASS
  1
ACAMCONTEXTMODELER
  2
AcAmContextModeler
  3
DesignerAssemblies
 90
     1024
280
     0
281
     0
  0
CLASS
  1
ACMDATADICTIONARY
  2
AcmDataDictionary
  3
"AcmSymBB|Product Description: AutoCAD Mechanical|Company: Autodesk, Inc."
 90
     1024
280
     0
281
     0
  0
CLASS
  1
ACAMGRCOMPDEFSET
  2
AcAmGrCompDefSet
  3
DesignerAssemblies
 90
     1024
280
     0
281
     0
  0
CLASS
  1
AMDTBROWSERDBTAB
  2
AmdtBrowserDbTab
  3
McadcomServices
 90
     1024
280
     0
281
     0
  0
CLASS
  1
CBROWSERAPPOBJECT
  2
CBrowserAppObject
  3
McadcomServices
 90
     1024
280
     0
281
     0
  0
CLASS
  1
DM_PLACEHOLDER
  2
AcDmSelsetPlaceholder
  3
AcMechDwgViewMgmt
 90
     1024
280
     0
281
     0
  0
CLASS
  1
ACMSTANDARDISO
  2
AcmStandardISO
  3
"Amdt_StdImp|Product Description: AutoCAD Mechanical|Company: Autodesk, Inc."
 90
     1024
280
     0
281
     0
  0
CLASS
  1
AMDTEDGESTANDARDISO13715
  2
AmdtEdgeStdISO13715
  3
"Amdt_StdImp|Product Description: AutoCAD Mechanical|Company: Autodesk, Inc."
 90
     1024
280
     0
281
     0
  0
CLASS
  1
ACMSURFSTANDARDISO2002
  2
AcmSurfTextStdISO2002
  3
"Amdt_StdImp|Product Description: AutoCAD Mechanical|Company: Autodesk, Inc."
 90
     1024
280
     0
281
     0
  0
CLASS
  1
ACMFCFSTANDARDISO
  2
AcmFCFStdISO
  3
"Amdt_StdImp|Product Description: AutoCAD Mechanical|Company: Autodesk, Inc."
 90
     1024
280
     0
281
     0
  0
CLASS
  1
ACMWELDSTANDARDISO
  2
AcmWeldingStdISO
  3
"Amdt_StdImp|Product Description: AutoCAD Mechanical|Company: Autodesk, Inc."
 90
     1024
280
     0
281
     0
  0
CLASS
  1
ACMIDSTANDARDISO
  2
AcmIdStdISO
  3
"Amdt_StdImp|Product Description: AutoCAD Mechanical|Company: Autodesk, Inc."
 90
     1024
280
     0
281
     0
  0
CLASS
  1
ACMDATUMSTANDARDISO
  2
AcmDatumStdISO
  3
"Amdt_StdImp|Product Description: AutoCAD Mechanical|Company: Autodesk, Inc."
 90
     1024
280
     0
281
     0
  0
CLASS
  1
ACMBOMSTANDARDISO
  2
AcmBOMStdISO
  3
"Amdt_StdImp|Product Description: AutoCAD Mechanical|Company: Autodesk, Inc."
 90
     1024
280
     0
281
     0
  0
CLASS
  1
ACMDETAILSTANDARDISO
  2
AmdtDetailSymStdISO
  3
"Amdt_StdImp|Product Description: AutoCAD Mechanical|Company: Autodesk, Inc."
 90
     1024
280
     0
281
     0
  0
CLASS
  1
ACMSECTIONSTANDARDISO2001
  2
AmdtSectionSymStdISO2001
  3
"Amdt_StdImp|Product Description: AutoCAD Mechanical|Company: Autodesk, Inc."
 90
     1024
280
     0
281
     0
  0
CLASS
  1
ACMCENTERLINESTANDARDISO
  2
AmdtCenterLineStdISO
  3
"Amdt_StdImp|Product Description: AutoCAD Mechanical|Company: Autodesk, Inc."
 90
     1024
280
     0
281
     0
  0
CLASS
  1
ACMTHREADLINESTANDARDISO
  2
AmdtThreadLineStdISO
  3
"Amdt_StdImp|Product Description: AutoCAD Mechanical|Company: Autodesk, Inc."
 90
     1024
280
     0
281
     0
  0
CLASS
  1
ACMNOTESTANDARDISO
  2
AmdtNoteStdISO
  3
"Amdt_StdImp|Product Description: AutoCAD Mechanical|Company: Autodesk, Inc."
 90
     1024
280
     0
281
     0
  0
CLASS
  1
ACMTAPERSTANDARDISO
  2
AcmTaperStdISO
  3
"Amdt_StdImp|Product Description: AutoCAD Mechanical|Company: Autodesk, Inc."
 90
     1024
280
     0
281
     0
  0
CLASS
  1
ACMANOOTATIONVIEWSTANDARDISO
  2
AmdtAnViewStdISO
  3
"Amdt_StdImp|Product Description: AutoCAD Mechanical|Company: Autodesk, Inc."
 90
     1024
280
     0
281
     0
  0
CLASS
  1
ACAMGLAYSTD
  2
AcAmgLayStd
  3
"AmgLay|Product Description: AutoCAD Mechanical|Company: Autodesk, Inc."
 90
     1024
280
     0
281
     0
  0
CLASS
  1
ACAMGDIMSTD
  2
AcAmgDimStd
  3
"AmgDim|Product Description: AutoCAD Mechanical|Company: Autodesk, Inc."
 90
     1024
280
     0
281
     0
  0
CLASS
  1
AMGOBJPROPCFG
  2
AmgObjPropCfg
  3
"AmgLay|Product Description: AutoCAD Mechanical|Company: Autodesk, Inc."
 90
     1025
280
     0
281
     0
  0
CLASS
  1
ACAMGHOLECHARTSTDISO
  2
AcAmgHoleChartStdISO
  3
AmgDim|Product Description: AutoCAD Mechanical|Company: Autodesk, Inc.
 90
     1024
280
     0
281
     0
  0
CLASS
  1
ACAMGTITLESTD
  2
AcAmgTitleStd
  3
"AmgTitle|Product Description: AutoCAD Mechanical|Company: Autodesk, Inc."
 90
     4095
280
     0
281
     0
  0
CLASS
  1
AMDTNOTETEMPLATEDB
  2
AmdtNoteTemplateDB
  3
AcmSymBB|Product Description: AutoCAD Mechanical|Company: Autodesk, Inc.
 90
     1024
280
     0
281
     0
  0
CLASS
  1
ACAMGFILTERDAT
  2
AcAmgFilterDat
  3
"AcadM|Product Description: AutoCAD Mechanical|Company: Autodesk, Inc."
 90
    33792
280
     0
281
     0
  0
CLASS
  1
AEC_REFEDIT_STATUS_TRACKER
  2
AecDbRefEditStatusTracker
  3
AecArchBase60|Product Desc: Autodesk Architectural Desktop 2007 |Company: Autodesk,Inc. |WEB Address: www.autodesk.com
 90
    32897
280
     0
281
     0
  0
CLASS
  1
NPOCOLLECTION
  2
AcDbImpNonPersistentObjectsCollection
  3
ObjectDBX Classes
 90
    33921
280
     0
281
     0
  0
CLASS
  1
SORTENTSTABLE
  2
AcDbSortentsTable
  3
ObjectDBX Classes
 90
        0
280
     0
281
     0
  0
CLASS
  1
ACMDIMBREAKPERSREACTOR
  2
AcmDimBreakPersReactor
  3
AmgDim|Product Description: AutoCAD Mechanical|Company: Autodesk, Inc.
 90
     4095
280
     0
281
     0
  0
CLASS
  1
CELLSTYLEMAP
  2
AcDbCellStyleMap
  3
ObjectDBX Classes
 90
     1152
280
     0
281
     0
  0
CLASS
  1
ACDBPLACEHOLDER
  2
AcDbPlaceHolder
  3
ObjectDBX Classes
 90
        0
280
     0
281
     0
  0
CLASS
  1
LAYOUT
  2
AcDbLayout
  3
ObjectDBX Classes
 90
        0
280
     0
281
     0
  0
ENDSEC
  0
SECTION
  2
TABLES
  0
TABLE
  2
VPORT
  5
8
330
0
100
AcDbSymbolTable
 70
     1
  0
VPORT
  5
99A9
330
8
100
AcDbSymbolTableRecord
100
AcDbViewportTableRecord
  2
*Active
 70
     0
 10
0.0
 20
0.0
 11
1.0
 21
1.0
 12
148.5039198253254
 22
72.5062382141785
 13
0.0
 23
0.0
 14
10.0
 24
10.0
 15
10.0
 25
10.0
 16
0.0
 26
0.0
 36
1.0
 17
0.0
 27
0.0
 37
0.0
 40
146.0739790616098
 41
1.769507803121248
 42
50.0
 43
0.0
 44
0.0
 50
0.0
 51
0.0
 71
     0
 72
   100
 73
     1
 74
     3
 75
     0
 76
     0
 77
     0
 78
     0
281
     0
 65
     0
110
0.0
120
0.0
130
0.0
111
1.0
121
0.0
131
0.0
112
0.0
122
1.0
132
0.0
 79
     0
146
0.0
  0
ENDTAB
  0
TABLE
  2
LTYPE
  5
5
330
0
100
AcDbSymbolTable
 70
    37
  0
LTYPE
  5
14
330
5
100
AcDbSymbolTableRecord
100
AcDbLinetypeTableRecord
  2
ByBlock
 70
     0
  3

 72
    65
 73
     0
 40
0.0
  0
LTYPE
  5
15
330
5
100
AcDbSymbolTableRecord
100
AcDbLinetypeTableRecord
  2
ByLayer
 70
     0
  3

 72
    65
 73
     0
 40
0.0
  0
LTYPE
  5
16
330
5
100
AcDbSymbolTableRecord
100
AcDbLinetypeTableRecord
  2
Continuous
 70
     0
  3
Solid line
 72
    65
 73
     0
 40
0.0
  0
LTYPE
  5
159
330
5
100
AcDbSymbolTableRecord
100
AcDbLinetypeTableRecord
  2
CENTER
 70
     0
  3
Center ____ _ ____ _ ____ _ ____ _ ____ _ ____
 72
    65
 73
     4
 40
50.8
 49
31.75
 74
     0
 49
-6.349999999999998
 74
     0
 49
6.349999999999998
 74
     0
 49
-6.349999999999998
 74
     0
  0
LTYPE
  5
3BD
330
5
100
AcDbSymbolTableRecord
100
AcDbLinetypeTableRecord
  2
ACAD_ISO03W100
 70
     0
  3
ISO dash space __    __    __    __    __    __
 72
    65
 73
     2
 40
30.0
 49
12.0
 74
     0
 49
-18.0
 74
     0
  0
LTYPE
  5
22AD
330
5
100
AcDbSymbolTableRecord
100
AcDbLinetypeTableRecord
  2
BORDERX2
 70
     0
  3
Border (2x) ____  ____  .  ____  ____  .  ___
 72
    65
 73
     6
 40
88.9
 49
25.4
 74
     0
 49
-12.7
 74
     0
 49
25.4
 74
     0
 49
-12.7
 74
     0
 49
0.0
 74
     0
 49
-12.7
 74
     0
  0
LTYPE
  5
22AE
330
5
100
AcDbSymbolTableRecord
100
AcDbLinetypeTableRecord
  2
CENTER2
 70
     0
  3
Center (.5x) ___ _ ___ _ ___ _ ___ _ ___ _ ___
 72
    65
 73
     4
 40
28.575
 49
19.05
 74
     0
 49
-3.174999999999998
 74
     0
 49
3.174999999999998
 74
     0
 49
-3.174999999999998
 74
     0
  0
LTYPE
  5
22AF
330
5
100
AcDbSymbolTableRecord
100
AcDbLinetypeTableRecord
  2
CENTERX2
 70
     0
  3
Center (2x) ________  __  ________  __  _____
 72
    65
 73
     4
 40
101.6
 49
63.5
 74
     0
 49
-12.7
 74
     0
 49
12.7
 74
     0
 49
-12.7
 74
     0
  0
LTYPE
  5
22B0
330
5
100
AcDbSymbolTableRecord
100
AcDbLinetypeTableRecord
  2
DASHDOT
 70
     0
  3
Dash dot __ . __ . __ . __ . __ . __ . __ . __
 72
    65
 73
     4
 40
25.4
 49
12.7
 74
     0
 49
-6.349999999999998
 74
     0
 49
0.0
 74
     0
 49
-6.349999999999998
 74
     0
  0
LTYPE
  5
22B1
330
5
100
AcDbSymbolTableRecord
100
AcDbLinetypeTableRecord
  2
DASHDOT2
 70
     0
  3
Dash dot (.5x) _._._._._._._._._._._._._._._.
 72
    65
 73
     4
 40
12.7
 49
6.349999999999998
 74
     0
 49
-3.174999999999998
 74
     0
 49
0.0
 74
     0
 49
-3.174999999999998
 74
     0
  0
LTYPE
  5
22B2
330
5
100
AcDbSymbolTableRecord
100
AcDbLinetypeTableRecord
  2
DASHDOTX2
 70
     0
  3
Dash dot (2x) ____  .  ____  .  ____  .  ___
 72
    65
 73
     4
 40
50.8
 49
25.4
 74
     0
 49
-12.7
 74
     0
 49
0.0
 74
     0
 49
-12.7
 74
     0
  0
LTYPE
  5
22B3
330
5
100
AcDbSymbolTableRecord
100
AcDbLinetypeTableRecord
  2
DASHED
 70
     0
  3
Dashed __ __ __ __ __ __ __ __ __ __ __ __ __ _
 72
    65
 73
     2
 40
19.05
 49
12.7
 74
     0
 49
-6.349999999999998
 74
     0
  0
LTYPE
  5
22B4
330
5
100
AcDbSymbolTableRecord
100
AcDbLinetypeTableRecord
  2
DASHED2
 70
     0
  3
Dashed (.5x) _ _ _ _ _ _ _ _ _ _ _ _ _ _ _ _ _
 72
    65
 73
     2
 40
9.524999999999996
 49
6.349999999999998
 74
     0
 49
-3.174999999999998
 74
     0
  0
LTYPE
  5
22B5
330
5
100
AcDbSymbolTableRecord
100
AcDbLinetypeTableRecord
  2
DASHEDX2
 70
     0
  3
Dashed (2x) ____  ____  ____  ____  ____  ___
 72
    65
 73
     2
 40
38.1
 49
25.4
 74
     0
 49
-12.7
 74
     0
  0
LTYPE
  5
22B6
330
5
100
AcDbSymbolTableRecord
100
AcDbLinetypeTableRecord
  2
DIVIDE
 70
     0
  3
Divide ____ . . ____ . . ____ . . ____ . . ____
 72
    65
 73
     6
 40
31.75
 49
12.7
 74
     0
 49
-6.349999999999998
 74
     0
 49
0.0
 74
     0
 49
-6.349999999999998
 74
     0
 49
0.0
 74
     0
 49
-6.349999999999998
 74
     0
  0
LTYPE
  5
22B7
330
5
100
AcDbSymbolTableRecord
100
AcDbLinetypeTableRecord
  2
DIVIDE2
 70
     0
  3
Divide (.5x) __..__..__..__..__..__..__..__.._
 72
    65
 73
     6
 40
15.875
 49
6.349999999999998
 74
     0
 49
-3.174999999999998
 74
     0
 49
0.0
 74
     0
 49
-3.174999999999998
 74
     0
 49
0.0
 74
     0
 49
-3.174999999999998
 74
     0
  0
LTYPE
  5
22B8
330
5
100
AcDbSymbolTableRecord
100
AcDbLinetypeTableRecord
  2
DIVIDEX2
 70
     0
  3
Divide (2x) ________  .  .  ________  .  .  _
 72
    65
 73
     6
 40
63.49999999999999
 49
25.4
 74
     0
 49
-12.7
 74
     0
 49
0.0
 74
     0
 49
-12.7
 74
     0
 49
0.0
 74
     0
 49
-12.7
 74
     0
  0
LTYPE
  5
22B9
330
5
100
AcDbSymbolTableRecord
100
AcDbLinetypeTableRecord
  2
DOT
 70
     0
  3
Dot . . . . . . . . . . . . . . . . . . . . . .
 72
    65
 73
     2
 40
6.349999999999998
 49
0.0
 74
     0
 49
-6.349999999999998
 74
     0
  0
LTYPE
  5
22BA
330
5
100
AcDbSymbolTableRecord
100
AcDbLinetypeTableRecord
  2
DOT2
 70
     0
  3
Dot (.5x) .....................................
 72
    65
 73
     2
 40
3.174999999999998
 49
0.0
 74
     0
 49
-3.174999999999998
 74
     0
  0
LTYPE
  5
22BB
330
5
100
AcDbSymbolTableRecord
100
AcDbLinetypeTableRecord
  2
DOTX2
 70
     0
  3
Dot (2x) .  .  .  .  .  .  .  .  .  .  .  .  . 
 72
    65
 73
     2
 40
12.7
 49
0.0
 74
     0
 49
-12.7
 74
     0
  0
LTYPE
  5
22BC
330
5
100
AcDbSymbolTableRecord
100
AcDbLinetypeTableRecord
  2
FENCELINE1
 70
     0
  3
Fenceline circle ----0-----0----0-----0----0---
 72
    65
 73
     4
 40
36.83
 49
6.349999999999998
 74
     0
 49
-2.54
 74
     4
 75
   133
340
158
 46
2.54
 50
0.0
 44
-2.54
 45
0.0
 49
-2.54
 74
     0
 49
25.4
 74
     0
  0
LTYPE
  5
22BD
330
5
100
AcDbSymbolTableRecord
100
AcDbLinetypeTableRecord
  2
FENCELINE2
 70
     0
  3
Fenceline square ----[]-----[]----[]-----[]----
 72
    65
 73
     4
 40
36.83
 49
6.349999999999998
 74
     0
 49
-2.54
 74
     4
 75
   132
340
158
 46
2.54
 50
0.0
 44
-2.54
 45
0.0
 49
-2.54
 74
     0
 49
25.4
 74
     0
  0
LTYPE
  5
22BE
330
5
100
AcDbSymbolTableRecord
100
AcDbLinetypeTableRecord
  2
GAS_LINE
 70
     0
  3
Gas line ----GAS----GAS----GAS----GAS----GAS---
 72
    65
 73
     3
 40
24.13
 49
12.7
 74
     0
 49
-5.08
 74
     2
 75
     0
340
11
 46
2.54
 50
0.0
 44
-2.54
 45
-1.27
  9
GAS
 49
-6.349999999999998
 74
     0
  0
LTYPE
  5
22BF
330
5
100
AcDbSymbolTableRecord
100
AcDbLinetypeTableRecord
  2
HIDDEN
 70
     0
  3
Hidden __ __ __ __ __ __ __ __ __ __ __ __ __ _
 72
    65
 73
     2
 40
9.524999999999996
 49
6.349999999999998
 74
     0
 49
-3.174999999999998
 74
     0
  0
LTYPE
  5
22C0
330
5
100
AcDbSymbolTableRecord
100
AcDbLinetypeTableRecord
  2
HIDDEN2
 70
     0
  3
Hidden (.5x) _ _ _ _ _ _ _ _ _ _ _ _ _ _ _ _ _
 72
    65
 73
     2
 40
4.762499999999998
 49
3.174999999999998
 74
     0
 49
-1.587499999999999
 74
     0
  0
LTYPE
  5
22C1
330
5
100
AcDbSymbolTableRecord
100
AcDbLinetypeTableRecord
  2
HIDDENX2
 70
     0
  3
Hidden (2x) ____ ____ ____ ____ ____ ____ ____
 72
    65
 73
     2
 40
19.05
 49
12.7
 74
     0
 49
-6.349999999999998
 74
     0
  0
LTYPE
  5
22C2
330
5
100
AcDbSymbolTableRecord
100
AcDbLinetypeTableRecord
  2
HOT_WATER_SUPPLY
 70
     0
  3
Hot water supply ---- HW ---- HW ---- HW ----
 72
    65
 73
     3
 40
22.86
 49
12.7
 74
     0
 49
-5.08
 74
     2
 75
     0
340
11
 46
2.54
 50
0.0
 44
-2.54
 45
-1.27
  9
HW
 49
-5.08
 74
     0
  0
LTYPE
  5
22C3
330
5
100
AcDbSymbolTableRecord
100
AcDbLinetypeTableRecord
  2
PHANTOM
 70
     0
  3
Phantom ______  __  __  ______  __  __  ______
 72
    65
 73
     6
 40
63.5
 49
31.75
 74
     0
 49
-6.349999999999998
 74
     0
 49
6.349999999999998
 74
     0
 49
-6.349999999999998
 74
     0
 49
6.349999999999998
 74
     0
 49
-6.349999999999998
 74
     0
  0
LTYPE
  5
22C4
330
5
100
AcDbSymbolTableRecord
100
AcDbLinetypeTableRecord
  2
PHANTOM2
 70
     0
  3
Phantom (.5x) ___ _ _ ___ _ _ ___ _ _ ___ _ _
 72
    65
 73
     6
 40
31.75
 49
15.875
 74
     0
 49
-3.174999999999998
 74
     0
 49
3.174999999999998
 74
     0
 49
-3.174999999999998
 74
     0
 49
3.174999999999998
 74
     0
 49
-3.174999999999998
 74
     0
  0
LTYPE
  5
9A66
330
5
100
AcDbSymbolTableRecord
100
AcDbLinetypeTableRecord
  2
AM_ISO02W050
 70
     0
  3
__ __ __ __ __ __ __ __ __ __ __ __ __ __ __
 72
    65
 73
     2
 40
7.5
 49
6.0
 74
     0
 49
-1.5
 74
     0
  0
LTYPE
  5
9A67
330
5
100
AcDbSymbolTableRecord
100
AcDbLinetypeTableRecord
  2
AM_ISO08W050
 70
     0
  3
____ . ____ . ____ . ____ . ____ . ____ . ____
 72
    65
 73
     4
 40
18.0
 49
12.0
 74
     0
 49
-1.5
 74
     0
 49
3.0
 74
     0
 49
-1.5
 74
     0
  0
LTYPE
  5
9A68
330
5
100
AcDbSymbolTableRecord
100
AcDbLinetypeTableRecord
  2
AM_ISO09W050
 70
     0
  3
_____ . . _____ . . _____ . . ____ .. ____
 72
    65
 73
     6
 40
22.5
 49
12.0
 74
     0
 49
-1.5
 74
     0
 49
3.0
 74
     0
 49
-1.5
 74
     0
 49
3.0
 74
     0
 49
-1.5
 74
     0
  0
LTYPE
  5
9A69
330
5
100
AcDbSymbolTableRecord
100
AcDbLinetypeTableRecord
  2
Amconstr
 70
     0
  3
_______________________
 72
    65
 73
     2
 40
9999.0
 49
9999.0
 74
     0
 49
0.0
 74
     0
  0
LTYPE
  5
9A6A
330
5
100
AcDbSymbolTableRecord
100
AcDbLinetypeTableRecord
  2
AM_ISO08W050x2
 70
     0
  3
__ . __ . __ . __ . __ . __
 72
    65
 73
     4
 40
9.0
 49
6.0
 74
     0
 49
-0.75
 74
     0
 49
1.5
 74
     0
 49
-0.75
 74
     0
  0
LTYPE
  5
9A6B
330
5
100
AcDbSymbolTableRecord
100
AcDbLinetypeTableRecord
  2
AM_ISO02W050x2
 70
     0
  3
 _ _ _ _ _ _ _ _ _ _ _ _
 72
    65
 73
     2
 40
3.75
 49
3.0
 74
     0
 49
-0.75
 74
     0
  0
LTYPE
  5
9A6E
330
5
100
AcDbSymbolTableRecord
100
AcDbLinetypeTableRecord
  2
Amzigzag
 70
     0
  3
/\/-/\/-/\/-/\/-/\/-/\/
 72
    65
 73
     2
 40
11.0001
 49
0.0001
 74
     4
 75
   136
340
9A6D
 46
0.04
 50
0.0
 44
0.0
 45
0.0
 49
-11.0
 74
     0
  0
LTYPE
  5
9A7D
330
5
100
AcDbSymbolTableRecord
100
AcDbLinetypeTableRecord
  2
ACISOWELD
 70
     0
  3
_ _ _ _ _
 72
    65
 73
     2
 40
2.0
 49
2.0
 74
     0
 49
-1.0
 74
     0
  0
LTYPE
  5
9A7E
330
5
100
AcDbSymbolTableRecord
100
AcDbLinetypeTableRecord
  2
ACISOTGB
 70
     0
  3
__ . . __ . .
 72
    65
 73
     6
 40
9.0
 49
4.0
 74
     0
 49
-1.0
 74
     0
 49
1.0
 74
     0
 49
-1.0
 74
     0
 49
1.0
 74
     0
 49
-1.0
 74
     0
  0
LTYPE
  5
9A7F
330
5
100
AcDbSymbolTableRecord
100
AcDbLinetypeTableRecord
  2
ACISOTGL
 70
     0
  3
_ _ _ _ _
 72
    65
 73
     2
 40
3.0
 49
2.0
 74
     0
 49
-1.0
 74
     0
  0
ENDTAB
  0
TABLE
  2
LAYER
  5
2
102
{ACAD_XDICTIONARY
360
9AE6
102
}
330
0
100
AcDbSymbolTable
 70
    13
  0
LAYER
  5
10
102
{ACAD_XDICTIONARY
360
9D24
102
}
330
2
100
AcDbSymbolTableRecord
100
AcDbLayerTableRecord
  2
0
 70
     0
 62
     7
  6
Continuous
370
    -3
390
F
  0
LAYER
  5
70
330
2
100
AcDbSymbolTableRecord
100
AcDbLayerTableRecord
  2
Defpoints
 70
     0
 62
     7
  6
Continuous
290
     0
370
    -3
390
F
  0
LAYER
  5
22C5
102
{ACAD_XDICTIONARY
360
9D26
102
}
330
2
100
AcDbSymbolTableRecord
100
AcDbLayerTableRecord
  2
中心線
 70
     0
 62
     1
  6
CENTER
370
    -3
390
F
  0
LAYER
  5
22C6
102
{ACAD_XDICTIONARY
360
9D28
102
}
330
2
100
AcDbSymbolTableRecord
100
AcDbLayerTableRecord
  2
\U+5185框線
 70
     0
 62
     9
  6
Continuous
370
    -3
390
F
  0
LAYER
  5
22C7
102
{ACAD_XDICTIONARY
360
9D2A
102
}
330
2
100
AcDbSymbolTableRecord
100
AcDbLayerTableRecord
  2
本体\U+5185線
 70
     0
 62
     4
  6
HIDDENX2
370
    -3
390
F
  0
LAYER
  5
22C8
102
{ACAD_XDICTIONARY
360
9D2C
102
}
330
2
100
AcDbSymbolTableRecord
100
AcDbLayerTableRecord
  2
標註線
 70
     0
 62
     6
  6
Continuous
370
    -3
390
F
  0
LAYER
  5
22C9
102
{ACAD_XDICTIONARY
360
9D2E
102
}
330
2
100
AcDbSymbolTableRecord
100
AcDbLayerTableRecord
  2
公差
 70
     0
 62
     3
  6
Continuous
370
    -3
390
F
  0
LAYER
  5
22CA
102
{ACAD_XDICTIONARY
360
9D30
102
}
330
2
100
AcDbSymbolTableRecord
100
AcDbLayerTableRecord
  2
本体外線
 70
     0
 62
     2
  6
Continuous
370
    -3
390
F
  0
LAYER
  5
22CB
102
{ACAD_XDICTIONARY
360
9D32
102
}
330
2
100
AcDbSymbolTableRecord
100
AcDbLayerTableRecord
  2
外\U+67A2線
 70
     0
 62
     8
  6
Continuous
370
    -3
390
F
  0
LAYER
  5
22CD
102
{ACAD_XDICTIONARY
360
9D34
102
}
330
2
100
AcDbSymbolTableRecord
100
AcDbLayerTableRecord
  2
剖面線
 70
     0
 62
     5
  6
Continuous
370
    -3
390
F
  0
LAYER
  5
22CF
102
{ACAD_XDICTIONARY
360
9D36
102
}
330
2
100
AcDbSymbolTableRecord
100
AcDbLayerTableRecord
  2
文字
 70
     0
 62
     6
  6
Continuous
370
    -3
390
F
  0
LAYER
  5
22D5
102
{ACAD_XDICTIONARY
360
9D38
102
}
330
2
100
AcDbSymbolTableRecord
100
AcDbLayerTableRecord
  2
3
 70
     0
 62
     4
  6
Continuous
370
    -3
390
F
  0
LAYER
  5
8C0D
102
{ACAD_XDICTIONARY
360
9D3A
102
}
330
2
100
AcDbSymbolTableRecord
100
AcDbLayerTableRecord
  2
-
 70
     0
 62
     8
  6
Continuous
370
    -3
390
F
  0
ENDTAB
  0
TABLE
  2
STYLE
  5
3
330
0
100
AcDbSymbolTable
 70
    10
  0
STYLE
  5
11
330
3
100
AcDbSymbolTableRecord
100
AcDbTextStyleTableRecord
  2
Standard
 70
     0
 40
0.0
 41
1.0
 50
0.0
 71
     0
 42
1.3
  3
txt
  4

  0
STYLE
  5
158
330
3
100
AcDbSymbolTableRecord
100
AcDbTextStyleTableRecord
  2

 70
     1
 40
0.0
 41
1.0
 50
0.0
 71
     0
 42
2.5
  3
ltypeshp.shx
  4

  0
STYLE
  5
2294
330
3
100
AcDbSymbolTableRecord
100
AcDbTextStyleTableRecord
  2
A
 70
     0
 40
1.0
 41
1.0
 50
0.0
 71
     0
 42
2.5
  3
MS Mincho.ttf
  4

1001
ACAD
1000
MS Mincho
1071
    32785
  0
STYLE
  5
22D6
330
3
100
AcDbSymbolTableRecord
100
AcDbTextStyleTableRecord
  2
JL
 70
     0
 40
10.0
 41
0.5
 50
0.0
 71
     0
 42
5.0
  3
MS Mincho.ttf
  4

1001
ACAD
1000
MS Mincho
1071
    32785
  0
STYLE
  5
8C0E
330
3
100
AcDbSymbolTableRecord
100
AcDbTextStyleTableRecord
  2
LKK
 70
     0
 40
50.0
 41
1.5
 50
0.0
 71
     0
 42
50.0
  3
MS PGothic.ttf
  4

1001
ACAD
1000
MS PGothic
1071
    32818
  0
STYLE
  5
9A6D
330
3
100
AcDbSymbolTableRecord
100
AcDbTextStyleTableRecord
  2

 70
     1
 40
0.0
 41
1.0
 50
0.0
 71
     0
 42
1.3
  3
genltshp.shx
  4

  0
STYLE
  5
9A7B
330
3
100
AcDbSymbolTableRecord
100
AcDbTextStyleTableRecord
  2
ACISOTS
 70
     0
 40
1.0
 41
1.0
 50
0.0
 71
     0
 42
1.3
  3
isocp.shx
  4
chineset.shx
  0
STYLE
  5
9A7C
330
3
100
AcDbSymbolTableRecord
100
AcDbTextStyleTableRecord
  2
ACISOGDT
 70
     0
 40
0.0
 41
1.0
 50
0.0
 71
     0
 42
1.3
  3
amgdt.shx
  4

  0
ENDTAB
  0
TABLE
  2
VIEW
  5
6
330
0
100
AcDbSymbolTable
 70
     0
  0
ENDTAB
  0
TABLE
  2
UCS
  5
7
330
0
100
AcDbSymbolTable
 70
     0
  0
ENDTAB
  0
TABLE
  2
APPID
  5
9
330
0
100
AcDbSymbolTable
 70
    21
  0
APPID
  5
12
330
9
100
AcDbSymbolTableRecord
100
AcDbRegAppTableRecord
  2
ACAD
 70
     0
  0
APPID
  5
14F
330
9
100
AcDbSymbolTableRecord
100
AcDbRegAppTableRecord
  2
DCO15
 70
     0
  0
APPID
  5
99FE
330
9
100
AcDbSymbolTableRecord
100
AcDbRegAppTableRecord
  2
MCAD_NO_VIS
 70
     0
  0
APPID
  5
99FF
330
9
100
AcDbSymbolTableRecord
100
AcDbRegAppTableRecord
  2
ACAD_TEMP_GRAPHIC
 70
     0
  0
APPID
  5
9A2A
330
9
100
AcDbSymbolTableRecord
100
AcDbRegAppTableRecord
  2
AD_DRAW
 70
     0
  0
APPID
  5
9A2D
330
9
100
AcDbSymbolTableRecord
100
AcDbRegAppTableRecord
  2
ACATTRIBSERVICES
 70
     0
  0
APPID
  5
9A46
330
9
100
AcDbSymbolTableRecord
100
AcDbRegAppTableRecord
  2
DESIGNERASSEMBLIES
 70
     0
  0
APPID
  5
9A4B
330
9
100
AcDbSymbolTableRecord
100
AcDbRegAppTableRecord
  2
ACADM_DIM_EDIT
 70
     0
  0
APPID
  5
9A4C
330
9
100
AcDbSymbolTableRecord
100
AcDbRegAppTableRecord
  2
AMDT_DM_ADJ
 70
     0
  0
APPID
  5
9A63
330
9
100
AcDbSymbolTableRecord
100
AcDbRegAppTableRecord
  2
ACAD_DSTYLE_DIMJAG
 70
     0
  0
APPID
  5
9A64
330
9
100
AcDbSymbolTableRecord
100
AcDbRegAppTableRecord
  2
ACAD_DSTYLE_DIMBREAK
 70
     0
  0
APPID
  5
9AE5
330
9
100
AcDbSymbolTableRecord
100
AcDbRegAppTableRecord
  2
ACAD_DSTYLE_DIMTALN
 70
     0
  0
APPID
  5
9C85
330
9
100
AcDbSymbolTableRecord
100
AcDbRegAppTableRecord
  2
ACAD_EXEMPT_FROM_CAD_STANDARDS
 70
     0
  0
APPID
  5
9C96
330
9
100
AcDbSymbolTableRecord
100
AcDbRegAppTableRecord
  2
ACAD_PSEXT
 70
     0
  0
APPID
  5
9CDC
330
9
100
AcDbSymbolTableRecord
100
AcDbRegAppTableRecord
  2
ACLAYERTOOLS
 70
     0
  0
APPID
  5
9DC2
330
9
100
AcDbSymbolTableRecord
100
AcDbRegAppTableRecord
  2
GENIUS_GENDIMSH_14
 70
     0
  0
APPID
  5
A004
330
9
100
AcDbSymbolTableRecord
100
AcDbRegAppTableRecord
  2
ACAD_MLEADERVER
 70
     0
  0
APPID
  5
A005
330
9
100
AcDbSymbolTableRecord
100
AcDbRegAppTableRecord
  2
ACAD_DSTYLE_DIMARC_LENGTH_SYMBOL
 70
     0
  0
APPID
  5
A006
330
9
100
AcDbSymbolTableRecord
100
AcDbRegAppTableRecord
  2
ACAD_DSTYLE_DIM_LINETYPE
 70
     0
  0
APPID
  5
A007
330
9
100
AcDbSymbolTableRecord
100
AcDbRegAppTableRecord
  2
ACAD_DSTYLE_DIM_EXT1_LINETYPE
 70
     0
  0
APPID
  5
A008
330
9
100
AcDbSymbolTableRecord
100
AcDbRegAppTableRecord
  2
ACAD_DSTYLE_DIM_EXT2_LINETYPE
 70
     0
  0
ENDTAB
  0
TABLE
  2
DIMSTYLE
  5
A
330
0
100
AcDbSymbolTable
 70
    11
100
AcDbDimStyleTable
 71
     2
340
9AE4
340
27
  0
DIMSTYLE
105
27
102
{ACAD_REACTORS
330
905F
330
9060
330
906A
330
906B
330
906C
330
9074
330
9075
330
9076
330
9077
330
9078
330
907C
330
9089
330
908A
330
9091
330
909F
330
90A8
330
90AF
330
90B0
330
90B1
330
90B2
102
}
330
A
100
AcDbSymbolTableRecord
100
AcDbDimStyleTableRecord
  2
ISO-25
 70
     0
 41
2.0
 42
0.625
 43
0.5
 44
0.5
 73
     0
 74
     0
 77
     3
 78
     8
140
1.5
141
2.5
143
0.03937007874016
147
1.0
171
     3
172
     1
176
     6
177
     6
178
     3
271
     1
272
     2
274
     3
279
     1
283
     0
284
     8
340
11
  0
DIMSTYLE
105
9A62
102
{ACAD_REACTORS
330
9ED1
102
}
330
A
100
AcDbSymbolTableRecord
100
AcDbDimStyleTableRecord
  2
AM_ISO
 70
     0
  4
"
 41
3.5
 42
1.0
 43
10.0
 44
1.0
 47
0.1
 48
0.1
 73
     0
 74
     0
 77
     1
 78
     8
 79
     2
140
3.5
141
0.0
143
0.0393701
146
0.71
147
1.5
172
     1
176
   256
177
   256
178
     2
271
     2
272
     3
274
     4
283
     0
284
     8
340
11
371
    -1
372
    -1
1001
ACAD_DSTYLE_DIMJAG
1070
   388
1040
1.5
1001
ACAD_DSTYLE_DIMBREAK
1070
   391
1040
3.75
1001
ACAD_DSTYLE_DIMARC_LENGTH_SYMBOL
1070
   379
1070
     1
1001
ACAD_DSTYLE_DIM_LINETYPE
1070
   380
1005
14
1001
ACAD_DSTYLE_DIM_EXT1_LINETYPE
1070
   381
1005
14
1001
ACAD_DSTYLE_DIM_EXT2_LINETYPE
1070
   382
1005
14
  0
DIMSTYLE
105
9A6F
330
A
100
AcDbSymbolTableRecord
100
AcDbDimStyleTableRecord
  2
AM_ISO$3
 70
     0
  4
"
 41
3.5
 42
1.0
 43
10.0
 44
1.0
 47
0.1
 48
0.1
 73
     0
 77
     1
 78
     8
 79
     2
140
3.5
141
0.0
143
0.0393701
146
0.71
147
1.5
176
   256
177
   256
178
     2
271
     2
272
     3
274
     4
283
     0
284
     8
288
     1
289
     0
340
11
371
    -1
372
    -1
1001
ACAD_DSTYLE_DIMBREAK
1070
   391
1040
3.75
1001
ACAD_DSTYLE_DIMJAG
1070
   388
1040
1.5
1001
ACAD_DSTYLE_DIMARC_LENGTH_SYMBOL
1070
   379
1070
     1
1001
ACAD_DSTYLE_DIM_LINETYPE
1070
   380
1005
14
1001
ACAD_DSTYLE_DIM_EXT1_LINETYPE
1070
   381
1005
14
1001
ACAD_DSTYLE_DIM_EXT2_LINETYPE
1070
   382
1005
14
  0
DIMSTYLE
105
9A70
330
A
100
AcDbSymbolTableRecord
100
AcDbDimStyleTableRecord
  2
AM_ISO$4
 70
     0
  4
"
 41
3.5
 42
1.0
 43
10.0
 44
1.0
 47
0.1
 48
0.1
 73
     0
 77
     1
 78
     8
 79
     2
140
3.5
141
0.0
143
0.0393701
146
0.71
147
1.5
176
   256
177
   256
178
     2
271
     2
272
     3
274
     4
283
     0
284
     8
288
     1
289
     0
340
11
371
    -1
372
    -1
1001
ACAD_DSTYLE_DIMBREAK
1070
   391
1040
3.75
1001
ACAD_DSTYLE_DIMJAG
1070
   388
1040
1.5
1001
ACAD_DSTYLE_DIMARC_LENGTH_SYMBOL
1070
   379
1070
     1
1001
ACAD_DSTYLE_DIM_LINETYPE
1070
   380
1005
14
1001
ACAD_DSTYLE_DIM_EXT1_LINETYPE
1070
   381
1005
14
1001
ACAD_DSTYLE_DIM_EXT2_LINETYPE
1070
   382
1005
14
  0
DIMSTYLE
105
9A71
330
A
100
AcDbSymbolTableRecord
100
AcDbDimStyleTableRecord
  2
AM_ISO$6
 70
     0
  4
"
 41
3.5
 42
1.0
 43
10.0
 44
1.0
 47
0.1
 48
0.1
 73
     0
 74
     0
 78
     8
 79
     2
140
3.5
141
0.0
143
0.0393701
146
0.71
147
1.5
172
     1
176
   256
177
   256
178
     2
271
     2
272
     3
274
     4
283
     0
284
     8
340
11
371
    -1
372
    -1
1001
ACAD_DSTYLE_DIMBREAK
1070
   391
1040
3.75
1001
ACAD_DSTYLE_DIMJAG
1070
   388
1040
1.5
1001
ACAD_DSTYLE_DIMARC_LENGTH_SYMBOL
1070
   379
1070
     1
1001
ACAD_DSTYLE_DIM_LINETYPE
1070
   380
1005
14
1001
ACAD_DSTYLE_DIM_EXT1_LINETYPE
1070
   381
1005
14
1001
ACAD_DSTYLE_DIM_EXT2_LINETYPE
1070
   382
1005
14
  0
DIMSTYLE
105
9A72
330
A
100
AcDbSymbolTableRecord
100
AcDbDimStyleTableRecord
  2
AM_ISO$7
 70
     0
  4
"
 41
3.5
 42
1.0
 43
10.0
 44
1.0
 47
0.1
 48
0.1
 73
     0
 74
     0
 77
     1
 78
     8
 79
     2
140
3.5
141
0.0
143
0.0393701
146
0.71
147
1.5
172
     1
176
   256
177
   256
178
     2
271
     2
272
     3
274
     4
283
     0
284
     8
340
11
371
    -1
372
    -1
1001
ACAD_DSTYLE_DIMBREAK
1070
   391
1040
3.75
1001
ACAD_DSTYLE_DIMJAG
1070
   388
1040
1.5
1001
ACAD_DSTYLE_DIMARC_LENGTH_SYMBOL
1070
   379
1070
     1
1001
ACAD_DSTYLE_DIM_LINETYPE
1070
   380
1005
14
1001
ACAD_DSTYLE_DIM_EXT1_LINETYPE
1070
   381
1005
14
1001
ACAD_DSTYLE_DIM_EXT2_LINETYPE
1070
   382
1005
14
  0
DIMSTYLE
105
9A73
330
A
100
AcDbSymbolTableRecord
100
AcDbDimStyleTableRecord
  2
AM_ISO$SF
 70
     0
  4
"
 41
3.5
 42
1.0
 43
10.0
 44
1.0
 47
0.1
 48
0.1
 73
     0
 74
     0
 75
     1
 76
     1
 77
     1
 78
     8
 79
     2
140
3.5
141
0.0
143
0.0393701
146
0.71
147
1.5
172
     1
176
   256
177
   256
178
     2
271
     2
272
     3
274
     4
283
     0
284
     8
340
11
371
    -1
372
    -1
1001
ACAD_DSTYLE_DIMBREAK
1070
   391
1040
3.75
1001
ACAD_DSTYLE_DIMJAG
1070
   388
1040
1.5
1001
ACAD_DSTYLE_DIMARC_LENGTH_SYMBOL
1070
   379
1070
     1
1001
ACAD_DSTYLE_DIM_LINETYPE
1070
   380
1005
14
1001
ACAD_DSTYLE_DIM_EXT1_LINETYPE
1070
   381
1005
14
1001
ACAD_DSTYLE_DIM_EXT2_LINETYPE
1070
   382
1005
14
  0
DIMSTYLE
105
9A78
330
A
100
AcDbSymbolTableRecord
100
AcDbDimStyleTableRecord
  2
AM_ISO$SH
 70
     0
  4
"
 41
3.5
 42
1.0
 43
10.0
 44
1.0
 47
0.1
 48
0.1
 73
     0
 74
     0
 75
     1
 76
     1
 77
     1
 78
     8
 79
     2
140
3.5
141
0.0
143
0.0393701
144
2.0
146
0.71
147
1.5
172
     1
173
     1
176
   256
177
   256
178
     2
271
     2
272
     3
274
     4
283
     0
284
     8
340
11
343
9A74
371
    -1
372
    -1
1001
ACAD_DSTYLE_DIMBREAK
1070
   391
1040
3.75
1001
ACAD_DSTYLE_DIMJAG
1070
   388
1040
1.5
1001
ACAD_DSTYLE_DIMARC_LENGTH_SYMBOL
1070
   379
1070
     1
1001
ACAD_DSTYLE_DIM_LINETYPE
1070
   380
1005
14
1001
ACAD_DSTYLE_DIM_EXT1_LINETYPE
1070
   381
1005
14
1001
ACAD_DSTYLE_DIM_EXT2_LINETYPE
1070
   382
1005
14
  0
DIMSTYLE
105
9AE4
102
{ACAD_REACTORS
330
9D08
330
9DC3
330
9EEB
330
9F1E
102
}
330
A
100
AcDbSymbolTableRecord
100
AcDbDimStyleTableRecord
  2
STANDARD NET
 70
     0
 40
0.5
 41
3.5
 42
1.199999999999999
 44
1.199999999999999
 73
     0
 74
     0
 77
     3
 78
     8
 79
     2
140
3.5
147
1.199999999999999
172
     1
176
   256
177
   256
178
     3
179
     2
271
     2
272
     2
340
11
341
98B8
342
98B8
1001
ACAD_DSTYLE_DIMJAG
1070
   388
1040
1.5
1001
ACAD_DSTYLE_DIMTALN
1070
   392
1070
     0
  0
ENDTAB
  0
TABLE
  2
BLOCK_RECORD
  5
1
330
0
100
AcDbSymbolTable
 70
    45
  0
BLOCK_RECORD
  5
1F
102
{ACAD_XDICTIONARY
360
8AB
102
}
330
1
100
AcDbSymbolTableRecord
100
AcDbBlockTableRecord
  2
*Model_Space
340
22
  0
BLOCK_RECORD
  5
1B
102
{ACAD_XDICTIONARY
360
8AD
102
}
330
1
100
AcDbSymbolTableRecord
100
AcDbBlockTableRecord
  2
*Paper_Space
340
1E
  0
BLOCK_RECORD
  5
23
102
{ACAD_XDICTIONARY
360
8AF
102
}
330
1
100
AcDbSymbolTableRecord
100
AcDbBlockTableRecord
  2
*Paper_Space0
340
26
  0
BLOCK_RECORD
  5
782A
330
1
100
AcDbSymbolTableRecord
100
AcDbBlockTableRecord
  2
*D1
340
0
  0
BLOCK_RECORD
  5
7CD1
330
1
100
AcDbSymbolTableRecord
100
AcDbBlockTableRecord
  2
*D2
340
0
  0
BLOCK_RECORD
  5
7F4C
330
1
100
AcDbSymbolTableRecord
100
AcDbBlockTableRecord
  2
A$C4DEE7543
340
0
  0
BLOCK_RECORD
  5
80AE
330
1
100
AcDbSymbolTableRecord
100
AcDbBlockTableRecord
  2
A$C5E524D16
340
0
  0
BLOCK_RECORD
  5
8B39
330
1
100
AcDbSymbolTableRecord
100
AcDbBlockTableRecord
  2
A$C6F967C31
340
0
  0
BLOCK_RECORD
  5
8B58
330
1
100
AcDbSymbolTableRecord
100
AcDbBlockTableRecord
  2
A$C3E173C42
340
0
  0
BLOCK_RECORD
  5
8C0F
330
1
100
AcDbSymbolTableRecord
100
AcDbBlockTableRecord
  2
A$C3C910B16
340
0
  0
BLOCK_RECORD
  5
8CD5
330
1
100
AcDbSymbolTableRecord
100
AcDbBlockTableRecord
  2
A$C1F177FD4
340
0
  0
BLOCK_RECORD
  5
8F42
330
1
100
AcDbSymbolTableRecord
100
AcDbBlockTableRecord
  2
A$C495C10FB
340
0
  0
BLOCK_RECORD
  5
8F64
330
1
100
AcDbSymbolTableRecord
100
AcDbBlockTableRecord
  2
_DOTSMALL
340
0
102
{BLKREFS
331
903E
102
}
  0
BLOCK_RECORD
  5
8F6B
330
1
100
AcDbSymbolTableRecord
100
AcDbBlockTableRecord
  2
*D11
340
0
  0
BLOCK_RECORD
  5
8F79
330
1
100
AcDbSymbolTableRecord
100
AcDbBlockTableRecord
  2
*D12
340
0
  0
BLOCK_RECORD
  5
8F85
330
1
100
AcDbSymbolTableRecord
100
AcDbBlockTableRecord
  2
*D13
340
0
  0
BLOCK_RECORD
  5
8F91
330
1
100
AcDbSymbolTableRecord
100
AcDbBlockTableRecord
  2
*D14
340
0
  0
BLOCK_RECORD
  5
8F9A
330
1
100
AcDbSymbolTableRecord
100
AcDbBlockTableRecord
  2
*D15
340
0
  0
BLOCK_RECORD
  5
8FA6
330
1
100
AcDbSymbolTableRecord
100
AcDbBlockTableRecord
  2
*D16
340
0
  0
BLOCK_RECORD
  5
8FB0
330
1
100
AcDbSymbolTableRecord
100
AcDbBlockTableRecord
  2
*D17
340
0
  0
BLOCK_RECORD
  5
8FBE
330
1
100
AcDbSymbolTableRecord
100
AcDbBlockTableRecord
  2
*D18
340
0
  0
BLOCK_RECORD
  5
8FC7
330
1
100
AcDbSymbolTableRecord
100
AcDbBlockTableRecord
  2
*D19
340
0
  0
BLOCK_RECORD
  5
8FD3
330
1
100
AcDbSymbolTableRecord
100
AcDbBlockTableRecord
  2
*D20
340
0
  0
BLOCK_RECORD
  5
8FE1
330
1
100
AcDbSymbolTableRecord
100
AcDbBlockTableRecord
  2
*D21
340
0
  0
BLOCK_RECORD
  5
8FED
330
1
100
AcDbSymbolTableRecord
100
AcDbBlockTableRecord
  2
*D22
340
0
  0
BLOCK_RECORD
  5
8FF9
330
1
100
AcDbSymbolTableRecord
100
AcDbBlockTableRecord
  2
*D23
340
0
  0
BLOCK_RECORD
  5
9005
330
1
100
AcDbSymbolTableRecord
100
AcDbBlockTableRecord
  2
*D24
340
0
  0
BLOCK_RECORD
  5
9011
330
1
100
AcDbSymbolTableRecord
100
AcDbBlockTableRecord
  2
*D25
340
0
  0
BLOCK_RECORD
  5
901F
330
1
100
AcDbSymbolTableRecord
100
AcDbBlockTableRecord
  2
*D26
340
0
  0
BLOCK_RECORD
  5
902B
330
1
100
AcDbSymbolTableRecord
100
AcDbBlockTableRecord
  2
*D27
340
0
  0
BLOCK_RECORD
  5
9039
330
1
100
AcDbSymbolTableRecord
100
AcDbBlockTableRecord
  2
*D28
340
0
  0
BLOCK_RECORD
  5
9045
330
1
100
AcDbSymbolTableRecord
100
AcDbBlockTableRecord
  2
*D29
340
0
  0
BLOCK_RECORD
  5
9053
330
1
100
AcDbSymbolTableRecord
100
AcDbBlockTableRecord
  2
*D30
340
0
  0
BLOCK_RECORD
  5
905E
330
1
100
AcDbSymbolTableRecord
100
AcDbBlockTableRecord
  2
A$C569F62FC
340
0
  0
BLOCK_RECORD
  5
960C
330
1
100
AcDbSymbolTableRecord
100
AcDbBlockTableRecord
  2
*D32
340
0
  0
BLOCK_RECORD
  5
96CA
330
1
100
AcDbSymbolTableRecord
100
AcDbBlockTableRecord
  2
A$C686D2C8F
340
0
  0
BLOCK_RECORD
  5
9727
330
1
100
AcDbSymbolTableRecord
100
AcDbBlockTableRecord
  2
*D34
340
0
  0
BLOCK_RECORD
  5
98B8
330
1
100
AcDbSymbolTableRecord
100
AcDbBlockTableRecord
  2
_Open30
340
0
102
{BLKREFS
331
9A90
331
9A91
331
9A9A
331
9A9B
331
9AA3
331
9AA4
331
9AAB
331
9AAC
331
9DCA
331
9DCB
331
9DD8
331
9DD9
331
9F25
331
9F26
331
9F2E
331
9F2F
331
9F40
331
9F41
102
}
  0
BLOCK_RECORD
  5
9A74
330
1
100
AcDbSymbolTableRecord
100
AcDbBlockTableRecord
  2
GENAXEH
340
0
  0
BLOCK_RECORD
  5
9CFC
330
1
100
AcDbSymbolTableRecord
100
AcDbBlockTableRecord
  2
*D37
340
0
  0
BLOCK_RECORD
  5
9D09
330
1
100
AcDbSymbolTableRecord
100
AcDbBlockTableRecord
  2
*D38
340
0
  0
BLOCK_RECORD
  5
9DC4
330
1
100
AcDbSymbolTableRecord
100
AcDbBlockTableRecord
  2
*D39
340
0
  0
BLOCK_RECORD
  5
9EEC
330
1
100
AcDbSymbolTableRecord
100
AcDbBlockTableRecord
  2
*D41
340
0
  0
BLOCK_RECORD
  5
9F1F
330
1
100
AcDbSymbolTableRecord
100
AcDbBlockTableRecord
  2
*D42
340
0
  0
ENDTAB
  0
ENDSEC
  0
SECTION
  2
BLOCKS
  0
BLOCK
  5
20
330
1F
100
AcDbEntity
  8
0
100
AcDbBlockBegin
  2
*Model_Space
 70
     0
 10
0.0
 20
0.0
 30
0.0
  3
*Model_Space
  1

  0
ENDBLK
  5
21
330
1F
100
AcDbEntity
  8
0
100
AcDbBlockEnd
  0
BLOCK
  5
1C
330
1B
100
AcDbEntity
 67
     1
  8
0
100
AcDbBlockBegin
  2
*Paper_Space
 70
     0
 10
0.0
 20
0.0
 30
0.0
  3
*Paper_Space
  1

  0
ENDBLK
  5
1D
330
1B
100
AcDbEntity
 67
     1
  8
0
100
AcDbBlockEnd
  0
BLOCK
  5
24
330
23
100
AcDbEntity
 67
     1
  8
0
100
AcDbBlockBegin
  2
*Paper_Space0
 70
     0
 10
0.0
 20
0.0
 30
0.0
  3
*Paper_Space0
  1

  0
ENDBLK
  5
25
330
23
100
AcDbEntity
 67
     1
  8
0
100
AcDbBlockEnd
  0
BLOCK
  5
8ED3
330
782A
100
AcDbEntity
  8
0
100
AcDbBlockBegin
  2
*D1
 70
     1
 10
0.0
 20
0.0
 30
0.0
  3
*D1
  1

  0
LINE
  5
9A8D
330
782A
100
AcDbEntity
  8
標註線
 62
     6
370
    -2
100
AcDbLine
 10
80.72284662023397
 20
96.19892126127355
 30
0.0
 11
89.34880552474201
 21
96.19892126127355
 31
0.0
  0
LINE
  5
9A8E
330
782A
100
AcDbEntity
  8
標註線
 62
     6
370
    -2
100
AcDbLine
 10
80.72284662023397
 20
82.1989212612735
 30
0.0
 11
89.34880552474199
 21
82.1989212612735
 31
0.0
  0
LINE
  5
9A8F
330
782A
100
AcDbEntity
  8
標註線
 62
     6
370
    -2
100
AcDbLine
 10
88.84880552474198
 20
95.19892126127356
 30
0.0
 11
88.84880552474198
 21
83.19892126127349
 31
0.0
  0
INSERT
  5
9A90
330
782A
100
AcDbEntity
  8
標註線
 62
     6
370
    -2
100
AcDbBlockReference
  2
_Open30
 10
88.848805524742
 20
96.19892126127355
 30
0.0
 50
90.0
  0
INSERT
  5
9A91
330
782A
100
AcDbEntity
  8
標註線
 62
     6
370
    -2
100
AcDbBlockReference
  2
_Open30
 10
88.84880552474198
 20
82.1989212612735
 30
0.0
 50
270.0
  0
MTEXT
  5
9A92
330
782A
100
AcDbEntity
  8
標註線
 62
     3
100
AcDbMText
 10
87.44880552474198
 20
89.19892126127354
 30
0.0
 40
1.8
 41
0.0
 71
     5
 72
     1
  1
14
 11
0.0000000000000001
 21
1.0
 31
0.0
 73
     1
 44
1.0
1001
ACAD
1000
MTEXTBEGIN
1070
    73
1070
     1
1070
    44
1040
1.0
1070
    74
1070
     0
1000
MTEXTEND
  0
POINT
  5
9A93
330
782A
100
AcDbEntity
  8
Defpoints
 62
     0
100
AcDbPoint
 10
80.09784662023397
 20
96.19892126127355
 30
0.0
  0
POINT
  5
9A94
330
782A
100
AcDbEntity
  8
Defpoints
 62
     0
100
AcDbPoint
 10
80.09784662023397
 20
82.1989212612735
 30
0.0
  0
POINT
  5
9A95
330
782A
100
AcDbEntity
  8
Defpoints
 62
     0
100
AcDbPoint
 10
88.84880552474198
 20
82.1989212612735
 30
0.0
  0
ENDBLK
  5
8EDD
330
782A
100
AcDbEntity
  8
0
100
AcDbBlockEnd
  0
BLOCK
  5
9595
330
7CD1
100
AcDbEntity
  8
0
100
AcDbBlockBegin
  2
*D2
 70
     1
 10
0.0
 20
0.0
 30
0.0
  3
*D2
  1

  0
LINE
  5
9A96
330
7CD1
100
AcDbEntity
  8
標註線
 62
     6
370
    -2
100
AcDbLine
 10
22.7237546956557
 20
84.67392126127341
 30
0.0
 11
22.7237546956557
 21
67.68439490921085
 31
0.0
  0
LINE
  5
9A97
330
7CD1
100
AcDbEntity
  8
標註線
 62
     6
370
    -2
100
AcDbLine
 10
48.7037546956556
 20
83.09099321140811
 30
0.0
 11
48.7037546956556
 21
67.68439490921085
 31
0.0
  0
LINE
  5
9A98
330
7CD1
100
AcDbEntity
  8
標註線
 62
     6
370
    -2
100
AcDbLine
 10
23.7237546956557
 20
68.18439490921085
 30
0.0
 11
47.7037546956556
 21
68.18439490921085
 31
0.0
  0
MTEXT
  5
9A99
330
7CD1
100
AcDbEntity
  8
標註線
 62
     3
100
AcDbMText
 10
35.77226496062919
 20
69.41183541680408
 30
0.0
 40
1.8
 41
0.0
 71
     5
 72
     1
  1
26
 73
     1
 44
1.0
1001
ACAD
1000
MTEXTBEGIN
1070
    73
1070
     1
1070
    44
1040
1.0
1070
    74
1070
     0
1000
MTEXTEND
  0
INSERT
  5
9A9A
330
7CD1
100
AcDbEntity
  8
標註線
 62
     6
370
    -2
100
AcDbBlockReference
  2
_Open30
 10
22.7237546956557
 20
68.18439490921085
 30
0.0
 50
180.0
  0
INSERT
  5
9A9B
330
7CD1
100
AcDbEntity
  8
標註線
 62
     6
370
    -2
100
AcDbBlockReference
  2
_Open30
 10
48.7037546956556
 20
68.18439490921085
 30
0.0
  0
POINT
  5
9A9C
330
7CD1
100
AcDbEntity
  8
Defpoints
 62
     0
100
AcDbPoint
 10
22.7237546956557
 20
85.29892126127341
 30
0.0
  0
POINT
  5
9A9D
330
7CD1
100
AcDbEntity
  8
Defpoints
 62
     0
100
AcDbPoint
 10
48.7037546956556
 20
83.71599321140811
 30
0.0
  0
POINT
  5
9A9E
330
7CD1
100
AcDbEntity
  8
Defpoints
 62
     0
100
AcDbPoint
 10
48.7037546956556
 20
68.18439490921085
 30
0.0
  0
ENDBLK
  5
959F
330
7CD1
100
AcDbEntity
  8
0
100
AcDbBlockEnd
  0
BLOCK
  5
7F4E
330
7F4C
100
AcDbEntity
  8
0
100
AcDbBlockBegin
  2
A$C4DEE7543
 70
     0
 10
0.0
 20
0.0
 30
0.0
  3
A$C4DEE7543
  1

  0
MTEXT
  5
7F4D
102
{ACAD_XDICTIONARY
360
9F70
102
}
330
7F4C
100
AcDbEntity
  8
文字
 48
2.0
370
    25
100
AcDbMText
 10
12.57274237954243
 20
1.334980306793539
 30
0.0
 40
1.5
 41
0.0
 71
     5
 72
     1
  1
\fＭＳ 明朝|b0|i0|c128|p17;PT1/4"GAUGE\U+4E0B\U+9650\U+4F4E0.5mm
 73
     1
 44
1.0
1001
ACAD
1000
MTEXTBEGIN
1070
    73
1070
     1
1070
    44
1040
1.0
1070
    74
1070
     0
1000
MTEXTEND
  0
ENDBLK
  5
7F4F
330
7F4C
100
AcDbEntity
  8
0
100
AcDbBlockEnd
  0
BLOCK
  5
80B3
330
80AE
100
AcDbEntity
  8
0
100
AcDbBlockBegin
  2
A$C5E524D16
 70
     0
 10
0.0
 20
0.0
 30
0.0
  3
A$C5E524D16
  1

  0
LINE
  5
80AF
330
80AE
100
AcDbEntity
  8
外\U+67A2線
 48
2.0
100
AcDbLine
 39
0.2499282991738727
 10
0.0000000993544518
 20
0.0000002819331257
 30
0.0
 11
148.5000000993544
 21
0.0000002819331257
 31
0.0
  0
LINE
  5
80B0
330
80AE
100
AcDbEntity
  8
外\U+67A2線
 48
2.0
100
AcDbLine
 39
0.2499282991738727
 10
0.0000000993544518
 20
105.0000002819331
 30
0.0
 11
148.5000000993544
 21
105.0000002819331
 31
0.0
  0
LINE
  5
80B1
330
80AE
100
AcDbEntity
  8
外\U+67A2線
 48
2.0
100
AcDbLine
 39
0.2499282991738727
 10
0.0000000993544518
 20
105.0000002819331
 30
0.0
 11
0.0000000993544518
 21
0.0000002819331257
 31
0.0
  0
LINE
  5
80B2
330
80AE
100
AcDbEntity
  8
外\U+67A2線
 48
2.0
100
AcDbLine
 39
0.2499282991738727
 10
148.5000000993544
 20
105.0000002819331
 30
0.0
 11
148.5000000993546
 21
0.0000002819331257
 31
0.0
  0
ENDBLK
  5
80B4
330
80AE
100
AcDbEntity
  8
0
100
AcDbBlockEnd
  0
BLOCK
  5
8B3E
330
8B39
100
AcDbEntity
  8
0
100
AcDbBlockBegin
  2
A$C6F967C31
 70
     0
 10
0.0
 20
0.0
 30
0.0
  3
A$C6F967C31
  1

  0
MTEXT
  5
8B3A
102
{ACAD_XDICTIONARY
360
9F72
102
}
330
8B39
100
AcDbEntity
  8
文字
 48
2.0
370
    25
100
AcDbMText
 10
3.919999884809612
 20
11.6436088990161
 30
0.0
 40
2.399999999999999
 41
0.0
 71
     5
 72
     1
  1
\Ftxt.shx,bigfont.shx|c128;\M+194F5\M+19290\M+18146
 73
     1
 44
1.0
1001
ACAD
1000
MTEXTBEGIN
1070
    73
1070
     1
1070
    44
1040
1.0
1070
    74
1070
     0
1000
MTEXTEND
  0
MTEXT
  5
8B3B
102
{ACAD_XDICTIONARY
360
9F74
102
}
330
8B39
100
AcDbEntity
  8
文字
 48
2.0
370
    25
100
AcDbMText
 10
21.30557514179372
 20
4.379705686228476
 30
0.0
 40
1.5
 41
0.0
 71
     5
 72
     1
  1
\Ftxt.shx,bigfont.shx|c128;\M+193E0\M+18A4F\M+18B85\M+18C61\M+188CA\M+19275\M+1907B\M+191C5\M+18CF51000\M+18194\M+188C8\M+18FE3\P 
 73
     1
 44
1.0
1001
ACAD
1000
MTEXTBEGIN
1070
    73
1070
     1
1070
    44
1040
1.0
1070
    74
1070
     0
1000
MTEXTEND
  0
MTEXT
  5
8B3C
102
{ACAD_XDICTIONARY
360
9F76
102
}
330
8B39
100
AcDbEntity
  8
文字
 48
2.0
370
    25
100
AcDbMText
 10
21.70841934060832
 20
1.864393567751504
 30
0.0
 40
1.5
 41
0.0
 71
     5
 72
     1
  1
\Ftxt.shx,bigfont.shx|c128;\M+1907D\M+196CA\M+18B9F\M+18E51\M+18D6C\M+188C82KG\M+19085\M+188B3\M+19573\M+19085\M+19852\M+188D7\M+18F80\P 
 73
     1
 44
1.0
1001
ACAD
1000
MTEXTBEGIN
1070
    73
1070
     1
1070
    44
1040
1.0
1070
    74
1070
     0
1000
MTEXTEND
  0
MTEXT
  5
8B3D
102
{ACAD_XDICTIONARY
360
9F78
102
}
330
8B39
100
AcDbEntity
  8
文字
 48
2.0
370
    25
100
AcDbMText
 10
19.34171117077972
 20
-0.4999998842221772
 30
0.0
 40
1.5
 41
0.0
 71
     5
 72
     1
  1
\Ftxt.shx,bigfont.shx|c128;\M+193E0\M+18A4F\M+18B85\M+18C61\M+1905E\M+1897E\M+193785/100\M+188C8\M+193E0\P 
 73
     1
 44
1.0
1001
ACAD
1000
MTEXTBEGIN
1070
    73
1070
     1
1070
    44
1040
1.0
1070
    74
1070
     0
1000
MTEXTEND
  0
ENDBLK
  5
8B3F
330
8B39
100
AcDbEntity
  8
0
100
AcDbBlockEnd
  0
BLOCK
  5
8B5A
330
8B58
100
AcDbEntity
  8
0
100
AcDbBlockBegin
  2
A$C3E173C42
 70
     0
 10
0.0
 20
0.0
 30
0.0
  3
A$C3E173C42
  1

  0
MTEXT
  5
8B59
102
{ACAD_XDICTIONARY
360
9F7A
102
}
330
8B58
100
AcDbEntity
  8
文字
 62
     7
 48
2.0
370
    25
100
AcDbMText
 10
1.800000626176596
 20
0.7499993151610626
 30
0.0
 40
1.5
 41
7.075035
 71
     5
 72
     1
  1
\Ftxt.shx,bigfont.shx|c128;\M+18FAC\M+196F6
  7
A
 73
     1
 44
1.0
1001
ACAD
1000
MTEXTBEGIN
1070
    73
1070
     1
1070
    44
1040
1.0
1070
    74
1070
     0
1000
MTEXTEND
  0
ENDBLK
  5
8B5B
330
8B58
100
AcDbEntity
  8
0
100
AcDbBlockEnd
  0
BLOCK
  5
8C6E
330
8C0F
100
AcDbEntity
  8
0
100
AcDbBlockBegin
  2
A$C3C910B16
 70
     0
 10
0.0
 20
0.0
 30
0.0
  3
A$C3C910B16
  1

  0
LINE
  5
8C10
330
8C0F
100
AcDbEntity
  8
文字
 62
     7
 48
5.0
100
AcDbLine
 39
4.0
 10
146.0044495899808
 20
26.28380608701878
 30
0.0
 11
151.33625330569
 21
27.61675701594601
 31
0.0
  0
LINE
  5
8C11
330
8C0F
100
AcDbEntity
  8
-
 62
     9
100
AcDbLine
 10
197.9999991614931
 20
289.9999998258893
 30
0.0
 11
197.9999991614931
 21
-0.0000001741105962
 31
0.0
  0
LINE
  5
8C12
330
8C0F
100
AcDbEntity
  8
-
 62
     9
370
    30
100
AcDbLine
 10
-0.0000008385068213
 20
-0.0000001741105393
 30
0.0
 11
-0.0000008385068213
 21
289.9999998258893
 31
0.0
  0
MTEXT
  5
8C13
330
8C0F
100
AcDbEntity
  8
文字
 62
     7
 48
2.0
370
    25
100
AcDbMText
 10
174.1021801836502
 20
5.029315772106087
 30
0.0
 40
3.0
 41
0.0
 71
     5
 72
     1
  1
\Ftxt.shx,bigfont.shx|c128;N N 8 4 4 4 6
 73
     1
 44
1.0
1001
ACAD
1000
MTEXTBEGIN
1070
    73
1070
     1
1070
    44
1040
1.0
1070
    74
1070
     0
1000
MTEXTEND
  0
MTEXT
  5
8C14
102
{ACAD_XDICTIONARY
360
9F7C
102
}
330
8C0F
100
AcDbEntity
  8
文字
 62
     7
 48
2.0
100
AcDbMText
 10
176.8774907176073
 20
25.62839545812892
 30
0.0
 40
3.5
 41
0.0
 71
     5
 72
     1
  1
\Ftxt.shx,bigfont.shx|c128;90%%d\M+18358\M+18376\M+1838C\M+1815B\M+1836D\M+18359\M+1838B
 73
     1
 44
1.0
1001
ACAD
1000
MTEXTBEGIN
1070
    73
1070
     1
1070
    44
1040
1.0
1070
    74
1070
     0
1000
MTEXTEND
  0
MTEXT
  5
8C15
102
{ACAD_XDICTIONARY
360
9F7E
102
}
330
8C0F
100
AcDbEntity
  8
0
100
AcDbMText
 10
157.5692881131749
 20
17.80266615575363
 30
0.0
 40
4.0
 41
0.0
 71
     1
 72
     5
  1
\Ftxt.shx,bigfont.shx|c128;\M+1907D  \M+196CA  \M+194D4  \M+18D86
  7
JL
 73
     1
 44
1.0
1001
ACAD
1000
MTEXTBEGIN
1070
    73
1070
     1
1070
    44
1040
1.0
1070
    74
1070
     0
1000
MTEXTEND
  0
LINE
  5
8C16
330
8C0F
100
AcDbEntity
  8
-
 62
     9
370
    30
100
AcDbLine
 10
197.9999991614931
 20
39.99999982588946
 30
0.0
 11
85.62762607545483
 21
39.99999982588946
 31
0.0
  0
LINE
  5
8C17
330
8C0F
100
AcDbEntity
  8
-
 62
     9
100
AcDbLine
 10
-0.0000008385068213
 20
-0.0000001741105393
 30
0.0
 11
197.9999991614931
 21
-0.0000001741105393
 31
0.0
  0
LINE
  5
8C18
330
8C0F
100
AcDbEntity
  8
-
 62
     9
370
    30
100
AcDbLine
 10
197.9999991614931
 20
49.99999982588946
 30
0.0
 11
-0.0000008385068213
 21
49.99999982588939
 31
0.0
  0
LINE
  5
8C19
330
8C0F
100
AcDbEntity
  8
-
 62
     9
370
    30
100
AcDbLine
 10
197.9999991614931
 20
19.9999998258894
 30
0.0
 11
85.62762607545437
 21
19.9999998258894
 31
0.0
  0
LINE
  5
8C1A
330
8C0F
100
AcDbEntity
  8
-
100
AcDbLine
 10
140.8276260754545
 20
49.99999982588946
 30
0.0
 11
140.8276260754545
 21
29.99999982588946
 31
0.0
  0
LINE
  5
8C1B
330
8C0F
100
AcDbEntity
  8
-
 62
     9
100
AcDbLine
 10
131.8276260754551
 20
49.99999982588946
 30
0.0
 11
131.8276260754551
 21
19.9999998258894
 31
0.0
  0
LINE
  5
8C1C
330
8C0F
100
AcDbEntity
  8
-
100
AcDbLine
 10
94.62762607545483
 20
49.99999982588946
 30
0.0
 11
94.62762607545483
 21
19.9999998258894
 31
0.0
  0
LINE
  5
8C1D
330
8C0F
100
AcDbEntity
  8
-
 62
     9
100
AcDbLine
 10
108.7276260754549
 20
49.99999982588946
 30
0.0
 11
108.7276260754549
 21
19.9999998258894
 31
0.0
  0
LINE
  5
8C1E
330
8C0F
100
AcDbEntity
  8
-
100
AcDbLine
 10
117.7276260754543
 20
49.99999982588946
 30
0.0
 11
117.7276260754547
 21
19.9999998258894
 31
0.0
  0
LINE
  5
8C1F
330
8C0F
100
AcDbEntity
  8
-
 62
     9
100
AcDbLine
 10
154.9276260754545
 20
49.99999982588946
 30
0.0
 11
154.927626075455
 21
-0.0000001741105393
 31
0.0
  0
LINE
  5
8C20
330
8C0F
100
AcDbEntity
  8
-
 62
     9
370
    30
100
AcDbLine
 10
34.6621406746026
 20
-0.0000001741105393
 30
0.0
 11
34.66214067460328
 21
49.99999982588939
 31
0.0
  0
LINE
  5
8C21
330
8C0F
100
AcDbEntity
  8
-
 62
     9
100
AcDbLine
 10
85.62762607545483
 20
49.99999982588946
 30
0.0
 11
85.62762607545483
 21
-0.0000001741105962
 31
0.0
  0
LINE
  5
8C22
330
8C0F
100
AcDbEntity
  8
-
 62
     9
370
    30
100
AcDbLine
 10
74.83673482207269
 20
0.1621607013844368
 30
0.0
 11
74.83673482207269
 21
43.74999982588939
 31
0.0
  0
LINE
  5
8C23
330
8C0F
100
AcDbEntity
  8
-
 62
     9
370
    30
100
AcDbLine
 10
47.28287903749764
 20
-0.0000001741105393
 30
0.0
 11
47.28287903749764
 21
49.99999982588946
 31
0.0
  0
LINE
  5
8C24
330
8C0F
100
AcDbEntity
  8
-
 62
     9
370
    30
100
AcDbLine
 10
57.47570245650967
 20
-0.0000001741105393
 30
0.0
 11
57.47570245650967
 21
49.99999982588946
 31
0.0
  0
LINE
  5
8C25
330
8C0F
100
AcDbEntity
  8
-
370
    30
100
AcDbLine
 10
11.48579793282852
 20
-0.0000001741105393
 30
0.0
 11
11.48579793282852
 21
49.99999982588939
 31
0.0
  0
MTEXT
  5
8C26
102
{ACAD_XDICTIONARY
360
9F80
102
}
330
8C0F
100
AcDbEntity
  8
文字
 62
     7
 48
2.0
370
    25
100
AcDbMText
 10
22.06181229367303
 20
14.77207754605194
 30
0.0
 40
3.299999999999999
 41
0.0
 71
     5
 72
     1
  1
\Ftxt.shx,bigfont.shx|c128;\M+19056\M+18B4B\M+194AD\M+18D73
 73
     1
 44
1.0
1001
ACAD
1000
MTEXTBEGIN
1070
    73
1070
     1
1070
    44
1040
1.0
1070
    74
1070
     0
1000
MTEXTEND
  0
MTEXT
  5
8C27
102
{ACAD_XDICTIONARY
360
9F82
102
}
330
8C0F
100
AcDbEntity
  8
文字
 62
     7
 48
2.0
370
    25
100
AcDbMText
 10
22.06181229367303
 20
4.772077546052058
 30
0.0
 40
3.299999999999999
 41
0.0
 71
     5
 72
     1
  1
\Ftxt.shx,bigfont.shx|c128;\M+18D58\M+189FC\M+193E0\M+19765
 73
     1
 44
1.0
1001
ACAD
1000
MTEXTBEGIN
1070
    73
1070
     1
1070
    44
1040
1.0
1070
    74
1070
     0
1000
MTEXTEND
  0
LINE
  5
8C28
330
8C0F
100
AcDbEntity
  8
-
 62
     9
370
    30
100
AcDbLine
 10
57.47570245650989
 20
19.9999998258894
 30
0.0
 11
-0.0000008385068213
 21
19.9999998258894
 31
0.0
  0
LINE
  5
8C29
330
8C0F
100
AcDbEntity
  8
-
 62
     9
370
    30
100
AcDbLine
 10
57.47570245650967
 20
19.9999998258894
 30
0.0
 11
4.999999161493177
 21
19.9999998258894
 31
0.0
  0
LINE
  5
8C2A
330
8C0F
100
AcDbEntity
  8
-
 62
     9
370
    30
100
AcDbLine
 10
57.47570245650967
 20
9.999999825889403
 30
0.0
 11
-0.0000008385068213
 21
9.999999825889403
 31
0.0
  0
LINE
  5
8C2B
330
8C0F
100
AcDbEntity
  8
-
 62
     9
370
    30
100
AcDbLine
 10
57.47570245650967
 20
29.99999982588946
 30
0.0
 11
-0.0000008385068213
 21
29.99999982588946
 31
0.0
  0
LINE
  5
8C2C
330
8C0F
100
AcDbEntity
  8
-
 62
     9
370
    30
100
AcDbLine
 10
57.47570245650967
 20
29.99999982588946
 30
0.0
 11
4.999999161493177
 21
29.99999982588946
 31
0.0
  0
LINE
  5
8C2D
330
8C0F
100
AcDbEntity
  8
文字
 62
     7
 48
2.0
370
    25
100
AcDbLine
 10
6.008519296919985
 20
17.84114523628614
 30
0.0
 11
8.647762136196206
 21
12.56265955773386
 31
0.0
  0
LINE
  5
8C2E
330
8C0F
100
AcDbEntity
  8
文字
 62
     7
 48
2.0
370
    25
100
AcDbLine
 10
6.008519296919985
 20
17.84114523628614
 30
0.0
 11
3.369276457644446
 21
12.56265955773386
 31
0.0
  0
MTEXT
  5
8C2F
330
8C0F
100
AcDbEntity
  8
文字
 62
     7
 48
2.0
370
    25
100
AcDbMText
 10
6.039464137852518
 20
14.60411399670784
 30
0.0
 40
2.375999999999999
 41
0.0
 71
     5
 72
     1
  1
\Ftxt.shx,bigfont.shx|c128;0
 73
     1
 44
1.0
1001
ACAD
1000
MTEXTBEGIN
1070
    73
1070
     1
1070
    44
1040
1.0
1070
    74
1070
     0
1000
MTEXTEND
  0
LINE
  5
8C30
330
8C0F
100
AcDbEntity
  8
文字
 62
     7
 48
2.0
370
    25
100
AcDbLine
 10
3.369276457644446
 20
12.56265955773386
 30
0.0
 11
8.647762136196206
 21
12.56265955773386
 31
0.0
  0
LINE
  5
8C31
330
8C0F
100
AcDbEntity
  8
文字
 62
     7
 48
2.0
370
    25
100
AcDbLine
 10
3.132963061893406
 20
2.197548938979309
 30
0.0
 11
8.411448740445164
 21
2.197548938979309
 31
0.0
  0
LINE
  5
8C32
330
8C0F
100
AcDbEntity
  8
文字
 62
     7
 48
2.0
370
    25
100
AcDbLine
 10
5.772205901168945
 20
7.47603461753158
 30
0.0
 11
3.132963061893406
 21
2.197548938979309
 31
0.0
  0
LINE
  5
8C33
330
8C0F
100
AcDbEntity
  8
文字
 62
     7
 48
2.0
370
    25
100
AcDbLine
 10
5.772205901168945
 20
7.47603461753158
 30
0.0
 11
8.411448740445164
 21
2.197548938979309
 31
0.0
  0
LINE
  5
8C34
330
8C0F
100
AcDbEntity
  8
-
100
AcDbLine
 10
85.62762607545483
 20
29.99999982588946
 30
0.0
 11
154.9276260754548
 21
29.99999982588946
 31
0.0
  0
MTEXT
  5
8C35
102
{ACAD_XDICTIONARY
360
9F84
102
}
330
8C0F
100
AcDbEntity
  8
0
100
AcDbMText
 10
88.52593004084544
 20
11.38352623591447
 30
0.0
 40
6.0
 41
0.0
 71
     1
 72
     5
  1
\Ftxt.shx,bigfont.shx|c128;\M+193FA\M+18B40\M+18A94\M+18EAE\M+189EF\M+18ED0
  7
LKK
 73
     1
 44
1.0
1001
ACAD
1000
MTEXTBEGIN
1070
    73
1070
     1
1070
    44
1040
1.0
1070
    74
1070
     0
1000
MTEXTEND
  0
MTEXT
  5
8C36
330
8C0F
100
AcDbEntity
  8
0
100
AcDbMText
 10
48.04120952974177
 20
15.96281530694597
 30
0.0
 40
3.149999999999999
 41
0.0
 71
     1
 72
     5
  1
\Ftxt.shx,bigfont.shx|c128;04.09.27
  7
JL
 73
     1
 44
1.0
1001
ACAD
1000
MTEXTBEGIN
1070
    73
1070
     1
1070
    44
1040
1.0
1070
    74
1070
     0
1000
MTEXTEND
  0
MTEXT
  5
8C37
102
{ACAD_XDICTIONARY
360
9F86
102
}
330
8C0F
100
AcDbEntity
  8
文字
 62
     7
 48
2.0
370
    25
100
AcDbMText
 10
40.96456400340616
 20
14.66799879014291
 30
0.0
 40
3.299999999999999
 41
0.0
 71
     5
 72
     1
  1
\Ftxt.shx,bigfont.shx|c128;\M+18CE0\M+196C1\M+18D47
 73
     1
 44
1.0
1001
ACAD
1000
MTEXTBEGIN
1070
    73
1070
     1
1070
    44
1040
1.0
1070
    74
1070
     0
1000
MTEXTEND
  0
MTEXT
  5
8C38
102
{ACAD_XDICTIONARY
360
9F88
102
}
330
8C0F
100
AcDbEntity
  8
文字
 62
     7
 48
2.0
370
    25
100
AcDbMText
 10
52.19873078253773
 20
4.55889651614484
 30
0.0
 40
3.299999999999999
 41
0.0
 71
     5
 72
     1
  1
\Ftxt.shx,bigfont.shx|c128;\M+193FA\M+19574
 73
     1
 44
1.0
1001
ACAD
1000
MTEXTBEGIN
1070
    73
1070
     1
1070
    44
1040
1.0
1070
    74
1070
     0
1000
MTEXTEND
  0
MTEXT
  5
8C39
102
{ACAD_XDICTIONARY
360
9F8A
102
}
330
8C0F
100
AcDbEntity
  8
文字
 62
     7
 48
2.0
370
    25
100
AcDbMText
 10
41.13539861933918
 20
4.667998790142917
 30
0.0
 40
3.299999999999999
 41
0.0
 71
     5
 72
     1
  1
\Ftxt.shx,bigfont.shx|c128;\M+19253\M+19396
 73
     1
 44
1.0
1001
ACAD
1000
MTEXTBEGIN
1070
    73
1070
     1
1070
    44
1040
1.0
1070
    74
1070
     0
1000
MTEXTEND
  0
MTEXT
  5
8C3A
330
8C0F
100
AcDbEntity
  8
文字
 62
     7
 48
2.0
370
    25
100
AcDbMText
 10
67.03114227605624
 20
15.5836884136404
 30
0.0
 40
2.375999999999999
 41
0.0
 71
     5
 72
     1
  1
\Ftxt.shx,bigfont.shx|c128;63-250
 73
     1
 44
1.0
1001
ACAD
1000
MTEXTBEGIN
1070
    73
1070
     1
1070
    44
1040
1.0
1070
    74
1070
     0
1000
MTEXTEND
  0
LINE
  5
8C3B
330
8C0F
100
AcDbEntity
  8
-
 62
     9
370
    30
100
AcDbLine
 10
85.62762607545483
 20
12.4999998258894
 30
0.0
 11
57.47570245650967
 21
12.4999998258894
 31
0.0
  0
LINE
  5
8C3C
330
8C0F
100
AcDbEntity
  8
-
 62
     9
370
    30
100
AcDbLine
 10
85.62762607545483
 20
6.249999825889402
 30
0.0
 11
57.47570245650967
 21
6.249999825889402
 31
0.0
  0
MTEXT
  5
8C3D
330
8C0F
100
AcDbEntity
  8
文字
 62
     7
 48
2.0
370
    25
100
AcDbMText
 10
66.64347435517585
 20
9.445137415244744
 30
0.0
 40
2.112
 41
0.0
 71
     5
 72
     1
  1
\Ftxt.shx,bigfont.shx|c128;250-1000
 73
     1
 44
1.0
1001
ACAD
1000
MTEXTBEGIN
1070
    73
1070
     1
1070
    44
1040
1.0
1070
    74
1070
     0
1000
MTEXTEND
  0
MTEXT
  5
8C3E
330
8C0F
100
AcDbEntity
  8
文字
 62
     7
 48
2.0
370
    25
100
AcDbMText
 10
66.19119637833614
 20
3.231920211083319
 30
0.0
 40
2.112
 41
0.0
 71
     5
 72
     1
  1
\Ftxt.shx,bigfont.shx|c128;1000-1500
 73
     1
 44
1.0
1001
ACAD
1000
MTEXTBEGIN
1070
    73
1070
     1
1070
    44
1040
1.0
1070
    74
1070
     0
1000
MTEXTEND
  0
MTEXT
  5
8C3F
330
8C0F
100
AcDbEntity
  8
文字
 62
     7
 48
2.0
370
    25
100
AcDbMText
 10
79.96691193379934
 20
9.258080095403327
 30
0.0
 40
2.112
 41
0.0
 71
     5
 72
     1
  1
\Ftxt.shx,bigfont.shx|c128;%%p0.3
 73
     1
 44
1.0
1001
ACAD
1000
MTEXTBEGIN
1070
    73
1070
     1
1070
    44
1040
1.0
1070
    74
1070
     0
1000
MTEXTEND
  0
MTEXT
  5
8C40
330
8C0F
100
AcDbEntity
  8
文字
 62
     7
 48
2.0
370
    25
100
AcDbMText
 10
79.83270556789055
 20
15.45175101538496
 30
0.0
 40
2.112
 41
0.0
 71
     5
 72
     1
  1
\Ftxt.shx,bigfont.shx|c128;%%p0.2
 73
     1
 44
1.0
1001
ACAD
1000
MTEXTBEGIN
1070
    73
1070
     1
1070
    44
1040
1.0
1070
    74
1070
     0
1000
MTEXTEND
  0
MTEXT
  5
8C41
330
8C0F
100
AcDbEntity
  8
文字
 62
     7
 48
2.0
370
    25
100
AcDbMText
 10
79.96691193379934
 20
3.149138946631296
 30
0.0
 40
2.112
 41
0.0
 71
     5
 72
     1
  1
\Ftxt.shx,bigfont.shx|c128;%%p0.5
 73
     1
 44
1.0
1001
ACAD
1000
MTEXTBEGIN
1070
    73
1070
     1
1070
    44
1040
1.0
1070
    74
1070
     0
1000
MTEXTEND
  0
LINE
  5
8C42
330
8C0F
100
AcDbEntity
  8
-
 62
     9
370
    30
100
AcDbLine
 10
85.62762607545483
 20
24.99999982588941
 30
0.0
 11
57.47570245650967
 21
24.99999982588941
 31
0.0
  0
LINE
  5
8C43
330
8C0F
100
AcDbEntity
  8
-
 62
     9
370
    30
100
AcDbLine
 10
85.62762607545483
 20
18.7499998258894
 30
0.0
 11
57.47570245650967
 21
18.7499998258894
 31
0.0
  0
LINE
  5
8C44
330
8C0F
100
AcDbEntity
  8
-
 62
     9
370
    30
100
AcDbLine
 10
85.62762607545483
 20
31.24999982588946
 30
0.0
 11
57.47570245650967
 21
31.24999982588946
 31
0.0
  0
MTEXT
  5
8C45
330
8C0F
100
AcDbEntity
  8
文字
 62
     7
 48
2.0
370
    25
100
AcDbMText
 10
68.58181206329639
 20
22.03115169010192
 30
0.0
 40
2.375999999999999
 41
0.0
 71
     5
 72
     1
  1
\Ftxt.shx,bigfont.shx|c128;16-63
 73
     1
 44
1.0
1001
ACAD
1000
MTEXTBEGIN
1070
    73
1070
     1
1070
    44
1040
1.0
1070
    74
1070
     0
1000
MTEXTEND
  0
MTEXT
  5
8C46
330
8C0F
100
AcDbEntity
  8
文字
 62
     7
 48
2.0
370
    25
100
AcDbMText
 10
69.35714600877645
 20
27.98827240830537
 30
0.0
 40
2.375999999999999
 41
0.0
 71
     5
 72
     1
  1
\Ftxt.shx,bigfont.shx|c128;4-16
 73
     1
 44
1.0
1001
ACAD
1000
MTEXTBEGIN
1070
    73
1070
     1
1070
    44
1040
1.0
1070
    74
1070
     0
1000
MTEXTEND
  0
MTEXT
  5
8C47
330
8C0F
100
AcDbEntity
  8
文字
 62
     7
 48
2.0
370
    25
100
AcDbMText
 10
79.30679804875579
 20
21.91530540214512
 30
0.0
 40
2.112
 41
0.0
 71
     5
 72
     1
  1
\Ftxt.shx,bigfont.shx|c128;%%p0.1
 73
     1
 44
1.0
1001
ACAD
1000
MTEXTBEGIN
1070
    73
1070
     1
1070
    44
1040
1.0
1070
    74
1070
     0
1000
MTEXTEND
  0
MTEXT
  5
8C48
330
8C0F
100
AcDbEntity
  8
文字
 62
     7
 48
2.0
370
    25
100
AcDbMText
 10
80.45952007623395
 20
28.07176296230341
 30
0.0
 40
2.112
 41
0.0
 71
     5
 72
     1
  1
\Ftxt.shx,bigfont.shx|c128;%%p0.07
 73
     1
 44
1.0
1001
ACAD
1000
MTEXTBEGIN
1070
    73
1070
     1
1070
    44
1040
1.0
1070
    74
1070
     0
1000
MTEXTEND
  0
MTEXT
  5
8C49
102
{ACAD_XDICTIONARY
360
9F8C
102
}
330
8C0F
100
AcDbEntity
  8
0
100
AcDbMText
 10
86.86475962591885
 20
27.67598811111634
 30
0.0
 40
4.5
 41
0.0
 71
     1
 72
     5
  1
\Ftxt.shx,bigfont.shx|c128;\M+190BB \M+1907D
  7
JL
 73
     1
 44
1.0
1001
ACAD
1000
MTEXTBEGIN
1070
    73
1070
     1
1070
    44
1040
1.0
1070
    74
1070
     0
1000
MTEXTEND
  0
MTEXT
  5
8C4A
102
{ACAD_XDICTIONARY
360
9F8E
102
}
330
8C0F
100
AcDbEntity
  8
0
100
AcDbMText
 10
110.200582868609
 20
26.84491783954434
 30
0.0
 40
4.5
 41
0.0
 71
     1
 72
     5
  1
\Ftxt.shx,bigfont.shx|c128;\M+193FA \M+19574
  7
JL
 73
     1
 44
1.0
1001
ACAD
1000
MTEXTBEGIN
1070
    73
1070
     1
1070
    44
1040
1.0
1070
    74
1070
     0
1000
MTEXTEND
  0
MTEXT
  5
8C4B
102
{ACAD_XDICTIONARY
360
9F90
102
}
330
8C0F
100
AcDbEntity
  8
0
100
AcDbMText
 10
97.38935124158549
 20
27.20397886471494
 30
0.0
 40
5.0
 41
0.0
 71
     1
 72
     5
  1
\Ftxt.shx,bigfont.shx|c128;\M+18CE0\M+196C1\M+18D47
  7
JL
 73
     1
 44
1.0
1001
ACAD
1000
MTEXTBEGIN
1070
    73
1070
     1
1070
    44
1040
1.0
1070
    74
1070
     0
1000
MTEXTEND
  0
MTEXT
  5
8C4C
330
8C0F
100
AcDbEntity
  8
0
100
AcDbMText
 10
118.3756450643711
 20
26.84491783954434
 30
0.0
 40
4.5
 41
0.0
 71
     1
 72
     5
  1
\Ftxt.shx,bigfont.shx|c128;04.09.27
  7
JL
 73
     1
 44
1.0
1001
ACAD
1000
MTEXTBEGIN
1070
    73
1070
     1
1070
    44
1040
1.0
1070
    74
1070
     0
1000
MTEXTEND
  0
LINE
  5
8C4D
330
8C0F
100
AcDbEntity
  8
文字
 62
     7
100
AcDbLine
 10
146.0044495899808
 20
23.61790422916414
 30
0.0
 11
151.33625330569
 21
22.28495330023685
 31
0.0
  0
LINE
  5
8C4E
330
8C0F
100
AcDbEntity
  8
文字
 62
     7
370
    25
100
AcDbLine
 10
145.2372472446984
 20
24.95085515809149
 30
0.0
 11
151.814917652669
 21
24.95085515809149
 31
0.0
  0
LINE
  5
8C4F
330
8C0F
100
AcDbEntity
  8
文字
 62
     7
370
    25
100
AcDbLine
 10
146.0044495899808
 20
23.61790422916414
 30
0.0
 11
146.0044495899808
 21
26.28380608701878
 31
0.0
  0
LINE
  5
8C50
330
8C0F
100
AcDbEntity
  8
文字
 62
     7
370
    25
100
AcDbLine
 10
151.33625330569
 20
22.28495330023685
 30
0.0
 11
151.33625330569
 21
27.61675701594601
 31
0.0
  0
LINE
  5
8C51
330
8C0F
100
AcDbEntity
  8
文字
 62
     7
370
    25
100
AcDbLine
 10
134.0086697620768
 20
24.95085515809137
 30
0.0
 11
140.870860380407
 21
24.95085515809149
 31
0.0
  0
CIRCLE
  5
8C52
330
8C0F
100
AcDbEntity
  8
文字
 62
     7
100
AcDbCircle
 10
137.3402685519534
 20
24.95085515809137
 30
0.0
 40
2.66590185785464
  0
CIRCLE
  5
8C53
330
8C0F
100
AcDbEntity
  8
文字
 62
     7
100
AcDbCircle
 10
137.3402685519534
 20
24.95085515809137
 30
0.0
 40
1.33295092892732
  0
LINE
  5
8C54
330
8C0F
100
AcDbEntity
  8
文字
 62
     7
370
    25
100
AcDbLine
 10
137.3402685519534
 20
21.62743082600173
 30
0.0
 11
137.3402685519534
 21
28.06314960869713
 31
0.0
  0
MTEXT
  5
8C55
102
{ACAD_XDICTIONARY
360
9F92
102
}
330
8C0F
100
AcDbEntity
  8
文字
 48
2.0
370
    25
100
AcDbMText
 10
35.26391061903974
 20
52.01147594841535
 30
0.0
 40
3.374999999999998
 41
0.0
 71
     5
 72
     1
  1
\Ftxt.shx,bigfont.shx|c128;4.\M+196A2\M+18E77\M+18EA6\M+18A70\M+19594\M+182CDR0.5\M+182C6\M+182B7\M+182E9\P 
 73
     1
 44
1.0
1001
ACAD
1000
MTEXTBEGIN
1070
    73
1070
     1
1070
    44
1040
1.0
1070
    74
1070
     0
1000
MTEXTEND
  0
MTEXT
  5
8C56
102
{ACAD_XDICTIONARY
360
9F94
102
}
330
8C0F
100
AcDbEntity
  8
文字
 48
2.0
370
    25
100
AcDbMText
 10
41.85569545600879
 20
68.33560133328139
 30
0.0
 40
3.374999999999998
 41
0.0
 71
     5
 72
     1
  1
\Ftxt.shx,bigfont.shx|c128;1.\M+193E0\M+18A4F\M+18B85\M+18C61\M+188CA\M+19275\M+1907B\M+191C5\M+18CF51000\M+18194\M+188C8\M+18FE3\P 
 73
     1
 44
1.0
1001
ACAD
1000
MTEXTBEGIN
1070
    73
1070
     1
1070
    44
1040
1.0
1070
    74
1070
     0
1000
MTEXTEND
  0
MTEXT
  5
8C57
102
{ACAD_XDICTIONARY
360
9F96
102
}
330
8C0F
100
AcDbEntity
  8
文字
 48
2.0
370
    25
100
AcDbMText
 10
42.76209490334189
 20
62.67614906670821
 30
0.0
 40
3.374999999999998
 41
0.0
 71
     5
 72
     1
  1
\Ftxt.shx,bigfont.shx|c128;2.\M+1907D\M+196CA\M+18B9F\M+18E51\M+18D6C\M+188C82KG\M+19085\M+188B3\M+19573\M+19085\M+19852\M+188D7\M+18F80\P 
 73
     1
 44
1.0
1001
ACAD
1000
MTEXTBEGIN
1070
    73
1070
     1
1070
    44
1040
1.0
1070
    74
1070
     0
1000
MTEXTEND
  0
MTEXT
  5
8C58
102
{ACAD_XDICTIONARY
360
9F98
102
}
330
8C0F
100
AcDbEntity
  8
文字
 48
2.0
370
    25
100
AcDbMText
 10
14.08803487014973
 20
80.0924558033842
 30
0.0
 40
4.5
 41
0.0
 71
     5
 72
     1
  1
\Ftxt.shx,bigfont.shx|c128;\M+194F5\M+19290\M+18146
 73
     1
 44
1.0
1001
ACAD
1000
MTEXTBEGIN
1070
    73
1070
     1
1070
    44
1040
1.0
1070
    74
1070
     0
1000
MTEXTEND
  0
MTEXT
  5
8C59
102
{ACAD_XDICTIONARY
360
9F9A
102
}
330
8C0F
100
AcDbEntity
  8
文字
 48
2.0
370
    25
100
AcDbMText
 10
37.43700152122779
 20
57.35626379976742
 30
0.0
 40
3.374999999999998
 41
0.0
 71
     5
 72
     1
  1
\Ftxt.shx,bigfont.shx|c128;3.\M+193E0\M+18A4F\M+18B85\M+18C61\M+1905E\M+1897E\M+193785/100\M+188C8\M+193E0\P 
 73
     1
 44
1.0
1001
ACAD
1000
MTEXTBEGIN
1070
    73
1070
     1
1070
    44
1040
1.0
1070
    74
1070
     0
1000
MTEXTEND
  0
LINE
  5
8C5A
330
8C0F
100
AcDbEntity
  8
-
 62
     9
370
    30
100
AcDbLine
 10
57.47570245650967
 20
39.99999982588946
 30
0.0
 11
-0.0000008385068213
 21
39.99999982588941
 31
0.0
  0
MTEXT
  5
8C5B
102
{ACAD_XDICTIONARY
360
9F9C
102
}
330
8C0F
100
AcDbEntity
  8
文字
 62
     7
 48
2.0
370
    25
100
AcDbMText
 10
71.7492551938592
 20
46.80388797303197
 30
0.0
 40
2.5
 41
0.0
 71
     5
 72
     1
  1
\Ftxt.shx,bigfont.shx|c128;\M+188EA   \M+194CA   \M+18CF6   \M+18DB7
 73
     1
 44
1.0
1001
ACAD
1000
MTEXTBEGIN
1070
    73
1070
     1
1070
    44
1040
1.0
1070
    74
1070
     0
1000
MTEXTEND
  0
MTEXT
  5
8C5C
102
{ACAD_XDICTIONARY
360
9F9E
102
}
330
8C0F
100
AcDbEntity
  8
0
100
AcDbMText
 10
86.86806796357132
 20
47.23012620756128
 30
0.0
 40
4.5
 41
0.0
 71
     1
 72
     5
  1
\Ftxt.shx,bigfont.shx|c128;\M+18FB3 \M+19446
  7
JL
 73
     1
 44
1.0
1001
ACAD
1000
MTEXTBEGIN
1070
    73
1070
     1
1070
    44
1040
1.0
1070
    74
1070
     0
1000
MTEXTEND
  0
LINE
  5
8C5D
330
8C0F
100
AcDbEntity
  8
-
 62
     9
370
    30
100
AcDbLine
 10
85.62762607545483
 20
43.74999982588939
 30
0.0
 11
57.47570245650967
 21
43.74999982588939
 31
0.0
  0
LINE
  5
8C5E
330
8C0F
100
AcDbEntity
  8
-
 62
     9
370
    30
100
AcDbLine
 10
85.62762607545483
 20
37.49999982588941
 30
0.0
 11
57.47570245650967
 21
37.49999982588941
 31
0.0
  0
MTEXT
  5
8C5F
330
8C0F
100
AcDbEntity
  8
文字
 62
     7
 48
2.0
370
    25
100
AcDbMText
 10
70.64937177961701
 20
34.22769107588351
 30
0.0
 40
2.375999999999999
 41
0.0
 71
     5
 72
     1
  1
\Ftxt.shx,bigfont.shx|c128;1-4
 73
     1
 44
1.0
1001
ACAD
1000
MTEXTBEGIN
1070
    73
1070
     1
1070
    44
1040
1.0
1070
    74
1070
     0
1000
MTEXTEND
  0
MTEXT
  5
8C60
102
{ACAD_XDICTIONARY
360
9FA0
102
}
330
8C0F
100
AcDbEntity
  8
文字
 62
     7
 48
2.0
370
    25
100
AcDbMText
 10
65.61808263833905
 20
40.53299584808502
 30
0.0
 40
2.64
 41
0.0
 71
     5
 72
     1
  1
\Ftxt.shx,bigfont.shx|c128;\M+190A1     \M+19640
 73
     1
 44
1.0
1001
ACAD
1000
MTEXTBEGIN
1070
    73
1070
     1
1070
    44
1040
1.0
1070
    74
1070
     0
1000
MTEXTEND
  0
MTEXT
  5
8C61
102
{ACAD_XDICTIONARY
360
9FA2
102
}
330
8C0F
100
AcDbEntity
  8
0
100
AcDbMText
 10
86.6279879424985
 20
37.76428101147156
 30
0.0
 40
4.5
 41
0.0
 71
     1
 72
     5
  1
\Ftxt.shx,bigfont.shx|c128;\M+18C9F \M+1907D
  7
JL
 73
     1
 44
1.0
1001
ACAD
1000
MTEXTBEGIN
1070
    73
1070
     1
1070
    44
1040
1.0
1070
    74
1070
     0
1000
MTEXTEND
  0
MTEXT
  5
8C62
102
{ACAD_XDICTIONARY
360
9FA4
102
}
330
8C0F
100
AcDbEntity
  8
文字
 62
     7
 48
2.0
370
    25
100
AcDbMText
 10
80.03495077201865
 20
40.49667865079067
 30
0.0
 40
1.9008
 41
0.0
 71
     5
 72
     1
  1
\Ftxt.shx,bigfont.shx|c128;\M+19765\M+18B96\M+18CF6\M+18DB7
 73
     1
 44
1.0
1001
ACAD
1000
MTEXTBEGIN
1070
    73
1070
     1
1070
    44
1040
1.0
1070
    74
1070
     0
1000
MTEXTEND
  0
MTEXT
  5
8C63
330
8C0F
100
AcDbEntity
  8
文字
 62
     7
 48
2.0
370
    25
100
AcDbMText
 10
80.14899464638823
 20
34.17724720030867
 30
0.0
 40
2.112
 41
0.0
 71
     5
 72
     1
  1
\Ftxt.shx,bigfont.shx|c128;%%p0.05
 73
     1
 44
1.0
1001
ACAD
1000
MTEXTBEGIN
1070
    73
1070
     1
1070
    44
1040
1.0
1070
    74
1070
     0
1000
MTEXTEND
  0
MTEXT
  5
8C64
102
{ACAD_XDICTIONARY
360
9FA6
102
}
330
8C0F
100
AcDbEntity
  8
0
100
AcDbMText
 10
110.2005828686083
 20
46.84491783954434
 30
0.0
 40
4.5
 41
0.0
 71
     1
 72
     5
  1
\Ftxt.shx,bigfont.shx|c128;\M+193FA \M+19574
  7
JL
 73
     1
 44
1.0
1001
ACAD
1000
MTEXTBEGIN
1070
    73
1070
     1
1070
    44
1040
1.0
1070
    74
1070
     0
1000
MTEXTEND
  0
MTEXT
  5
8C65
102
{ACAD_XDICTIONARY
360
9FA8
102
}
330
8C0F
100
AcDbEntity
  8
0
100
AcDbMText
 10
110.2005828686083
 20
36.84491783954435
 30
0.0
 40
4.5
 41
0.0
 71
     1
 72
     5
  1
\Ftxt.shx,bigfont.shx|c128;\M+193FA \M+19574
  7
JL
 73
     1
 44
1.0
1001
ACAD
1000
MTEXTBEGIN
1070
    73
1070
     1
1070
    44
1040
1.0
1070
    74
1070
     0
1000
MTEXTEND
  0
MTEXT
  5
8C66
102
{ACAD_XDICTIONARY
360
9FAA
102
}
330
8C0F
100
AcDbEntity
  8
0
100
AcDbMText
 10
133.1441488954026
 20
47.56512725519428
 30
0.0
 40
4.5
 41
0.0
 71
     1
 72
     5
  1
\Ftxt.shx,bigfont.shx|c128;\M+18DDE \M+18EBF
  7
JL
 73
     1
 44
1.0
1001
ACAD
1000
MTEXTBEGIN
1070
    73
1070
     1
1070
    44
1040
1.0
1070
    74
1070
     0
1000
MTEXTEND
  0
MTEXT
  5
8C67
330
8C0F
100
AcDbEntity
  8
0
100
AcDbMText
 10
144.1909216736833
 20
47.56512725519428
 30
0.0
 40
4.5
 41
0.0
 71
     1
 72
     5
  1
\Ftxt.shx,bigfont.shx|c128;POM
  7
JL
 73
     1
 44
1.0
1001
ACAD
1000
MTEXTBEGIN
1070
    73
1070
     1
1070
    44
1040
1.0
1070
    74
1070
     0
1000
MTEXTEND
  0
MTEXT
  5
8C68
102
{ACAD_XDICTIONARY
360
9FAC
102
}
330
8C0F
100
AcDbEntity
  8
0
370
    25
100
AcDbMText
 10
157.6553264200854
 20
47.53364595841424
 30
0.0
 40
4.0
 41
0.0
 71
     1
 72
     5
  1
\Ftxt.shx,bigfont.shx|c128;\M+18B40     \M+18EED
  7
JL
 73
     1
 44
1.0
1001
ACAD
1000
MTEXTBEGIN
1070
    73
1070
     1
1070
    44
1040
1.0
1070
    74
1070
     0
1000
MTEXTEND
  0
MTEXT
  5
8C69
102
{ACAD_XDICTIONARY
360
9FAE
102
}
330
8C0F
100
AcDbEntity
  8
0
100
AcDbMText
 10
133.1441488954026
 20
37.56512725519428
 30
0.0
 40
4.5
 41
0.0
 71
     1
 72
     5
  1
\Ftxt.shx,bigfont.shx|c128;\M+18EDA \M+19378
  7
JL
 73
     1
 44
1.0
1001
ACAD
1000
MTEXTBEGIN
1070
    73
1070
     1
1070
    44
1040
1.0
1070
    74
1070
     0
1000
MTEXTEND
  0
MTEXT
  5
8C6A
330
8C0F
100
AcDbEntity
  8
0
100
AcDbMText
 10
145.0646015610659
 20
37.56512725519428
 30
0.0
 40
4.5
 41
0.0
 71
     1
 72
     5
  1
\Ftxt.shx,bigfont.shx|c128;1 : 1
  7
JL
 73
     1
 44
1.0
1001
ACAD
1000
MTEXTBEGIN
1070
    73
1070
     1
1070
    44
1040
1.0
1070
    74
1070
     0
1000
MTEXTEND
  0
MTEXT
  5
8C6B
102
{ACAD_XDICTIONARY
360
9FB0
102
}
330
8C0F
100
AcDbEntity
  8
0
370
    25
100
AcDbMText
 10
157.6553264200854
 20
38.62543327906781
 30
0.0
 40
4.0
 41
0.0
 71
     1
 72
     5
  1
\Ftxt.shx,bigfont.shx|c128;\M+19569     \M+196BC
  7
JL
 73
     1
 44
1.0
1001
ACAD
1000
MTEXTBEGIN
1070
    73
1070
     1
1070
    44
1040
1.0
1070
    74
1070
     0
1000
MTEXTEND
  0
MTEXT
  5
8C6C
102
{ACAD_XDICTIONARY
360
9FB2
102
}
330
8C0F
100
AcDbEntity
  8
0
370
    25
100
AcDbMText
 10
173.951493184338
 20
47.53364595841424
 30
0.0
 40
4.0
 41
0.0
 71
     1
 72
     5
  1
\Ftxt.shx,bigfont.shx|c128;1/2"\M+18356\M+18358\M+18365\M+18380
  7
JL
 73
     1
 44
1.0
1001
ACAD
1000
MTEXTBEGIN
1070
    73
1070
     1
1070
    44
1040
1.0
1070
    74
1070
     0
1000
MTEXTEND
  0
LINE
  5
8C6D
330
8C0F
100
AcDbEntity
  8
-
 62
     9
100
AcDbLine
 10
197.9999991614931
 20
289.9999998258893
 30
0.0
 11
-0.0000008385068213
 21
289.9999998258893
 31
0.0
  0
ENDBLK
  5
8C6F
330
8C0F
100
AcDbEntity
  8
0
100
AcDbBlockEnd
  0
BLOCK
  5
8CD8
330
8CD5
100
AcDbEntity
  8
0
100
AcDbBlockBegin
  2
A$C1F177FD4
 70
     0
 10
0.0
 20
0.0
 30
0.0
  3
A$C1F177FD4
  1

  0
MTEXT
  5
8CD6
102
{ACAD_XDICTIONARY
360
9FB4
102
}
330
8CD5
100
AcDbEntity
  8
文字
 48
2.0
370
    25
100
AcDbMText
 10
32.48453921738724
 20
-1.125000051316987
 30
0.0
 40
3.374999999999998
 41
0.0
 71
     5
 72
     1
  1
\Ftxt.shx,bigfont.shx|c128;6.PT1/2 GAUGE\M+189BA\M+18CC0\M+192E10.5mm\P 
 73
     1
 44
1.0
1001
ACAD
1000
MTEXTBEGIN
1070
    73
1070
     1
1070
    44
1040
1.0
1070
    74
1070
     0
1000
MTEXTEND
  0
MTEXT
  5
8CD7
102
{ACAD_XDICTIONARY
360
9FB6
102
}
330
8CD5
100
AcDbEntity
  8
文字
 48
2.0
370
    25
100
AcDbMText
 10
13.72500014474121
 20
4.219787800035078
 30
0.0
 40
3.374999999999998
 41
0.0
 71
     5
 72
     1
  1
\Ftxt.shx,bigfont.shx|c128;5.PT\M+18E9A\M+191CC\M+18D8F\M+188F3\P 
 73
     1
 44
1.0
1001
ACAD
1000
MTEXTBEGIN
1070
    73
1070
     1
1070
    44
1040
1.0
1070
    74
1070
     0
1000
MTEXTEND
  0
ENDBLK
  5
8CD9
330
8CD5
100
AcDbEntity
  8
0
100
AcDbBlockEnd
  0
BLOCK
  5
8F44
330
8F42
100
AcDbEntity
  8
0
100
AcDbBlockBegin
  2
A$C495C10FB
 70
     0
 10
0.0
 20
0.0
 30
0.0
  3
A$C495C10FB
  1

  0
MTEXT
  5
8F43
102
{ACAD_XDICTIONARY
360
9FB8
102
}
330
8F42
100
AcDbEntity
  8
文字
 48
2.0
370
    25
100
AcDbMText
 10
13.72500045408481
 20
-1.125000165727612
 30
0.0
 40
3.374999999999998
 41
0.0
 71
     5
 72
     1
  1
\Ftxt.shx,bigfont.shx|c128;5.PT\M+18E9A\M+191CC\M+18D8F\M+188F3\P 
 73
     1
 44
1.0
1001
ACAD
1000
MTEXTBEGIN
1070
    73
1070
     1
1070
    44
1040
1.0
1070
    74
1070
     0
1000
MTEXTEND
  0
ENDBLK
  5
8F45
330
8F42
100
AcDbEntity
  8
0
100
AcDbBlockEnd
  0
BLOCK
  5
8F69
330
8F64
100
AcDbEntity
  8
0
100
AcDbBlockBegin
  2
_DOTSMALL
 70
     0
 10
0.0
 20
0.0
 30
0.0
  3
_DOTSMALL
  1

  0
LWPOLYLINE
  5
8F65
330
8F64
100
AcDbEntity
  8
0
  6
ByBlock
 62
     0
100
AcDbPolyline
 90
        2
 70
     1
 43
0.5
 10
-0.0625
 20
0.0
 42
1.0
 10
0.0625
 20
0.0
 42
1.0
  0
ENDBLK
  5
8F6A
330
8F64
100
AcDbEntity
  8
0
100
AcDbBlockEnd
  0
BLOCK
  5
8F77
330
8F6B
100
AcDbEntity
  8
0
100
AcDbBlockBegin
  2
*D11
 70
     1
 10
0.0
 20
0.0
 30
0.0
  3
*D11
  1

  0
LINE
  5
8F6C
330
8F6B
100
AcDbEntity
  8
0
  6
ByBlock
 62
     6
100
AcDbLine
 10
402.3479357956078
 20
111.7705110717867
 30
0.0
 11
402.3479357956078
 21
117.5986745294046
 31
0.0
  0
LINE
  5
8F6D
330
8F6B
100
AcDbEntity
  8
0
  6
ByBlock
 62
     6
100
AcDbLine
 10
401.5479357956078
 20
112.7561532507057
 30
0.0
 11
401.5479357956078
 21
117.5986745294046
 31
0.0
  0
LINE
  5
8F6E
330
8F6B
100
AcDbEntity
  8
0
  6
ByBlock
 62
     6
100
AcDbLine
 10
403.5479357956076
 20
117.0986745294046
 30
0.0
 11
404.7479357956077
 21
117.0986745294046
 31
0.0
  0
LINE
  5
8F6F
330
8F6B
100
AcDbEntity
  8
0
  6
ByBlock
 62
     6
100
AcDbLine
 10
400.3479357956078
 20
117.0986745294046
 30
0.0
 11
395.5646024622745
 21
117.0986745294046
 31
0.0
  0
LINE
  5
8F70
330
8F6B
100
AcDbEntity
  8
0
  6
ByBlock
 62
     6
100
AcDbLine
 10
402.3479357956078
 20
117.0986745294046
 30
0.0
 11
401.5479357956078
 21
117.0986745294046
 31
0.0
  0
SOLID
  5
8F71
330
8F6B
100
AcDbEntity
  8
0
  6
ByBlock
 62
     6
100
AcDbTrace
 10
403.5479357956076
 20
117.2986745294046
 30
0.0
 11
403.5479357956076
 21
116.8986745294045
 31
0.0
 12
402.3479357956078
 22
117.0986745294046
 32
0.0
 13
402.3479357956078
 23
117.0986745294046
 33
0.0
  0
SOLID
  5
8F72
330
8F6B
100
AcDbEntity
  8
0
  6
ByBlock
 62
     6
100
AcDbTrace
 10
400.3479357956078
 20
117.2986745294046
 30
0.0
 11
400.3479357956078
 21
116.8986745294045
 31
0.0
 12
401.5479357956078
 22
117.0986745294046
 32
0.0
 13
401.5479357956078
 23
117.0986745294046
 33
0.0
  0
MTEXT
  5
8F73
330
8F6B
100
AcDbEntity
  8
0
  6
ByBlock
 62
     3
100
AcDbMText
 10
397.3562691289412
 20
118.3486745294046
 30
0.0
 40
1.3
 41
0.0
 71
     5
 72
     1
  1
0.8
 73
     1
 44
1.0
1001
ACAD
1000
MTEXTBEGIN
1070
    73
1070
     1
1070
    44
1040
1.0
1070
    74
1070
     0
1000
MTEXTEND
  0
POINT
  5
8F74
330
8F6B
100
AcDbEntity
  8
Defpoints
  6
ByBlock
 62
     0
100
AcDbPoint
 10
402.3479357956078
 20
111.2705110717867
 30
0.0
  0
POINT
  5
8F75
330
8F6B
100
AcDbEntity
  8
Defpoints
  6
ByBlock
 62
     0
100
AcDbPoint
 10
401.5479357956078
 20
112.2561532507057
 30
0.0
  0
POINT
  5
8F76
330
8F6B
100
AcDbEntity
  8
Defpoints
  6
ByBlock
 62
     0
100
AcDbPoint
 10
401.5479357956078
 20
117.0986745294046
 30
0.0
  0
ENDBLK
  5
8F78
330
8F6B
100
AcDbEntity
  8
0
100
AcDbBlockEnd
  0
BLOCK
  5
8F83
330
8F79
100
AcDbEntity
  8
0
100
AcDbBlockBegin
  2
*D12
 70
     1
 10
0.0
 20
0.0
 30
0.0
  3
*D12
  1

  0
LINE
  5
8F7A
330
8F79
100
AcDbEntity
  8
0
  6
ByBlock
 62
     6
100
AcDbLine
 10
356.8753452349656
 20
73.1155754818453
 30
0.0
 11
350.8012073560644
 21
73.1155754818453
 31
0.0
  0
LINE
  5
8F7B
330
8F79
100
AcDbEntity
  8
0
  6
ByBlock
 62
     6
100
AcDbLine
 10
356.8753452349656
 20
57.11557548184529
 30
0.0
 11
350.8012073560644
 21
57.11557548184529
 31
0.0
  0
LINE
  5
8F7C
330
8F79
100
AcDbEntity
  8
0
  6
ByBlock
 62
     6
100
AcDbLine
 10
351.3012073560644
 20
71.61557548184529
 30
0.0
 11
351.3012073560644
 21
58.61557548184529
 31
0.0
  0
SOLID
  5
8F7D
330
8F79
100
AcDbEntity
  8
0
  6
ByBlock
 62
     6
100
AcDbTrace
 10
351.0512073560644
 20
71.61557548184529
 30
0.0
 11
351.5512073560643
 21
71.61557548184529
 31
0.0
 12
351.3012073560644
 22
73.1155754818453
 32
0.0
 13
351.3012073560644
 23
73.1155754818453
 33
0.0
  0
SOLID
  5
8F7E
330
8F79
100
AcDbEntity
  8
0
  6
ByBlock
 62
     6
100
AcDbTrace
 10
351.0512073560644
 20
58.61557548184529
 30
0.0
 11
351.5512073560643
 21
58.61557548184529
 31
0.0
 12
351.3012073560644
 22
57.11557548184529
 32
0.0
 13
351.3012073560644
 23
57.11557548184529
 33
0.0
  0
MTEXT
  5
8F7F
102
{ACAD_XDICTIONARY
360
9FBA
102
}
330
8F79
100
AcDbEntity
  8
0
  6
ByBlock
 62
     3
100
AcDbMText
 10
349.9512073560644
 20
65.1155754818453
 30
0.0
 40
1.5
 41
0.0
 71
     5
 72
     1
  1
\U+220516
 11
0.0000000000000001
 21
1.0
 31
0.0
 73
     1
 44
1.0
1001
ACAD
1000
MTEXTBEGIN
1070
    73
1070
     1
1070
    44
1040
1.0
1070
    74
1070
     0
1000
MTEXTEND
  0
POINT
  5
8F80
330
8F79
100
AcDbEntity
  8
Defpoints
  6
ByBlock
 62
     0
100
AcDbPoint
 10
357.3753452349656
 20
73.1155754818453
 30
0.0
  0
POINT
  5
8F81
330
8F79
100
AcDbEntity
  8
Defpoints
  6
ByBlock
 62
     0
100
AcDbPoint
 10
357.3753452349656
 20
57.11557548184529
 30
0.0
  0
POINT
  5
8F82
330
8F79
100
AcDbEntity
  8
Defpoints
  6
ByBlock
 62
     0
100
AcDbPoint
 10
351.3012073560644
 20
57.11557548184529
 30
0.0
  0
ENDBLK
  5
8F84
330
8F79
100
AcDbEntity
  8
0
100
AcDbBlockEnd
  0
BLOCK
  5
8F8F
330
8F85
100
AcDbEntity
  8
0
100
AcDbBlockBegin
  2
*D13
 70
     1
 10
0.0
 20
0.0
 30
0.0
  3
*D13
  1

  0
LINE
  5
8F86
330
8F85
100
AcDbEntity
  8
0
  6
ByBlock
 62
     6
100
AcDbLine
 10
40.59074425275617
 20
111.2705110717867
 30
0.0
 11
36.6575928971451
 21
111.2705110717867
 31
0.0
  0
LINE
  5
8F87
330
8F85
100
AcDbEntity
  8
0
  6
ByBlock
 62
     6
100
AcDbLine
 10
40.59074425275617
 20
99.24179542962445
 30
0.0
 11
36.6575928971451
 21
99.24179542962445
 31
0.0
  0
LINE
  5
8F88
330
8F85
100
AcDbEntity
  8
0
  6
ByBlock
 62
     6
100
AcDbLine
 10
37.15759289714509
 20
109.7705110717867
 30
0.0
 11
37.15759289714509
 21
100.7417954296244
 31
0.0
  0
SOLID
  5
8F89
330
8F85
100
AcDbEntity
  8
0
  6
ByBlock
 62
     6
100
AcDbTrace
 10
36.9075928971451
 20
109.7705110717867
 30
0.0
 11
37.40759289714509
 21
109.7705110717867
 31
0.0
 12
37.15759289714509
 22
111.2705110717867
 32
0.0
 13
37.15759289714509
 23
111.2705110717867
 33
0.0
  0
SOLID
  5
8F8A
330
8F85
100
AcDbEntity
  8
0
  6
ByBlock
 62
     6
100
AcDbTrace
 10
36.9075928971451
 20
100.7417954296244
 30
0.0
 11
37.40759289714509
 21
100.7417954296244
 31
0.0
 12
37.15759289714509
 22
99.24179542962445
 32
0.0
 13
37.15759289714509
 23
99.24179542962445
 33
0.0
  0
MTEXT
  5
8F8B
102
{ACAD_XDICTIONARY
360
9FBC
102
}
330
8F85
100
AcDbEntity
  8
0
  6
ByBlock
 62
     3
100
AcDbMText
 10
35.80759289714509
 20
103.0917954296244
 30
0.0
 40
1.5
 41
0.0
 71
     5
 72
     1
  1
\U+220512
 11
0.0000000000000001
 21
1.0
 31
0.0
 73
     1
 44
1.0
1001
ACAD
1000
MTEXTBEGIN
1070
    73
1070
     1
1070
    44
1040
1.0
1070
    74
1070
     0
1000
MTEXTEND
  0
POINT
  5
8F8C
330
8F85
100
AcDbEntity
  8
Defpoints
  6
ByBlock
 62
     0
100
AcDbPoint
 10
41.09074425275617
 20
111.2705110717867
 30
0.0
  0
POINT
  5
8F8D
330
8F85
100
AcDbEntity
  8
Defpoints
  6
ByBlock
 62
     0
100
AcDbPoint
 10
41.09074425275617
 20
99.24179542962445
 30
0.0
  0
POINT
  5
8F8E
330
8F85
100
AcDbEntity
  8
Defpoints
  6
ByBlock
 62
     0
100
AcDbPoint
 10
37.15759289714509
 20
99.24179542962445
 30
0.0
  0
ENDBLK
  5
8F90
330
8F85
100
AcDbEntity
  8
0
100
AcDbBlockEnd
  0
BLOCK
  5
8F98
330
8F91
100
AcDbEntity
  8
0
100
AcDbBlockBegin
  2
*D14
 70
     1
 10
0.0
 20
0.0
 30
0.0
  3
*D14
  1

  0
LINE
  5
8F92
330
8F91
100
AcDbEntity
  8
0
  6
ByBlock
 62
     6
100
AcDbLine
 10
355.5968312158471
 20
56.58734700542183
 30
0.0
 11
350.7136177898756
 21
52.81549310804614
 31
0.0
  0
LINE
  5
8F93
330
8F91
100
AcDbEntity
  8
0
  6
ByBlock
 62
     6
100
AcDbLine
 10
357.5753452349655
 20
58.11557548184552
 30
0.0
 11
356.783939627318
 21
57.50428409127605
 31
0.0
  0
SOLID
  5
8F94
330
8F91
100
AcDbEntity
  8
0
  6
ByBlock
 62
     6
100
AcDbTrace
 10
355.4440083682047
 20
56.78519840733368
 30
0.0
 11
355.7496540634894
 21
56.38949560351003
 31
0.0
 12
356.783939627318
 22
57.50428409127605
 32
0.0
 13
356.783939627318
 23
57.50428409127605
 33
0.0
  0
MTEXT
  5
8F95
330
8F91
100
AcDbEntity
  8
0
  6
ByBlock
 62
     3
100
AcDbMText
 10
351.1546233848426
 20
54.86195690328115
 30
0.0
 40
1.5
 41
0.0
 71
     5
 72
     1
  1
R1
 11
0.7914056076473375
 21
0.6112913905694637
 31
0.0
 73
     1
 44
1.0
1001
ACAD
1000
MTEXTBEGIN
1070
    73
1070
     1
1070
    44
1040
1.0
1070
    74
1070
     0
1000
MTEXTEND
  0
POINT
  5
8F96
330
8F91
100
AcDbEntity
  8
Defpoints
  6
ByBlock
 62
     0
100
AcDbPoint
 10
356.783939627318
 20
57.50428409127605
 30
0.0
  0
POINT
  5
8F97
330
8F91
100
AcDbEntity
  8
Defpoints
  6
ByBlock
 62
     0
100
AcDbPoint
 10
357.5753452349655
 20
58.11557548184552
 30
0.0
  0
ENDBLK
  5
8F99
330
8F91
100
AcDbEntity
  8
0
100
AcDbBlockEnd
  0
BLOCK
  5
8FA4
330
8F9A
100
AcDbEntity
  8
0
100
AcDbBlockBegin
  2
*D15
 70
     1
 10
0.0
 20
0.0
 30
0.0
  3
*D15
  1

  0
LINE
  5
8F9B
330
8F9A
100
AcDbEntity
  8
0
  6
ByBlock
 62
     6
100
AcDbLine
 10
422.5479357956078
 20
109.7561532507056
 30
0.0
 11
430.0747769845432
 21
109.7561532507056
 31
0.0
  0
LINE
  5
8F9C
330
8F9A
100
AcDbEntity
  8
0
  6
ByBlock
 62
     6
100
AcDbLine
 10
422.5479357956078
 20
100.7561532507055
 30
0.0
 11
430.0747769845432
 21
100.7561532507055
 31
0.0
  0
LINE
  5
8F9D
330
8F9A
100
AcDbEntity
  8
0
  6
ByBlock
 62
     6
100
AcDbLine
 10
429.5747769845432
 20
108.2561532507056
 30
0.0
 11
429.5747769845432
 21
102.2561532507056
 31
0.0
  0
SOLID
  5
8F9E
330
8F9A
100
AcDbEntity
  8
0
  6
ByBlock
 62
     6
100
AcDbTrace
 10
429.3247769845431
 20
108.2561532507056
 30
0.0
 11
429.8247769845431
 21
108.2561532507056
 31
0.0
 12
429.5747769845432
 22
109.7561532507056
 32
0.0
 13
429.5747769845432
 23
109.7561532507056
 33
0.0
  0
SOLID
  5
8F9F
330
8F9A
100
AcDbEntity
  8
0
  6
ByBlock
 62
     6
100
AcDbTrace
 10
429.3247769845431
 20
102.2561532507056
 30
0.0
 11
429.8247769845431
 21
102.2561532507056
 31
0.0
 12
429.5747769845432
 22
100.7561532507055
 32
0.0
 13
429.5747769845432
 23
100.7561532507055
 33
0.0
  0
MTEXT
  5
8FA0
102
{ACAD_XDICTIONARY
360
9FBE
102
}
330
8F9A
100
AcDbEntity
  8
0
  6
ByBlock
 62
     3
100
AcDbMText
 10
428.2247769845431
 20
105.5783374855963
 30
0.0
 40
1.5
 41
0.0
 71
     5
 72
     1
  1
\U+22059
 11
0.0000000000000001
 21
1.0
 31
0.0
 73
     1
 44
1.0
1001
ACAD
1000
MTEXTBEGIN
1070
    73
1070
     1
1070
    44
1040
1.0
1070
    74
1070
     0
1000
MTEXTEND
  0
POINT
  5
8FA1
330
8F9A
100
AcDbEntity
  8
Defpoints
  6
ByBlock
 62
     0
100
AcDbPoint
 10
422.0479357956078
 20
109.7561532507056
 30
0.0
  0
POINT
  5
8FA2
330
8F9A
100
AcDbEntity
  8
Defpoints
  6
ByBlock
 62
     0
100
AcDbPoint
 10
422.0479357956078
 20
100.7561532507055
 30
0.0
  0
POINT
  5
8FA3
330
8F9A
100
AcDbEntity
  8
Defpoints
  6
ByBlock
 62
     0
100
AcDbPoint
 10
429.5747769845432
 20
100.7561532507055
 30
0.0
  0
ENDBLK
  5
8FA5
330
8F9A
100
AcDbEntity
  8
0
100
AcDbBlockEnd
  0
BLOCK
  5
8FAE
330
8FA6
100
AcDbEntity
  8
0
100
AcDbBlockBegin
  2
*D16
 70
     1
 10
0.0
 20
0.0
 30
0.0
  3
*D16
  1

  0
LINE
  5
8FA7
330
8FA6
100
AcDbEntity
  8
0
  6
ByBlock
 62
     6
100
AcDbLine
 10
357.3535081613398
 20
100.3561926217305
 30
0.0
 11
359.7971823085915
 21
110.1561138796822
 31
0.0
  0
LINE
  5
8FA8
330
8FA6
100
AcDbEntity
  8
0
  6
ByBlock
 62
     6
100
AcDbLine
 10
360.0875198310373
 20
111.3204609598348
 30
0.0
 11
362.8089515295398
 21
122.2342795572173
 31
0.0
  0
SOLID
  5
8FA9
330
8FA6
100
AcDbEntity
  8
0
  6
ByBlock
 62
     6
100
AcDbTrace
 10
357.1594503146477
 20
100.4045822088048
 30
0.0
 11
357.547566008032
 21
100.3078030346562
 31
0.0
 12
357.0631706388941
 22
99.19184554157782
 32
0.0
 13
357.0631706388941
 23
99.19184554157782
 33
0.0
  0
SOLID
  5
8FAA
330
8FA6
100
AcDbEntity
  8
0
  6
ByBlock
 62
     6
100
AcDbTrace
 10
359.6031244618993
 20
110.2045034667564
 30
0.0
 11
359.9912401552836
 21
110.1077242926079
 31
0.0
 12
360.0875198310373
 22
111.3204609598348
 32
0.0
 13
360.0875198310373
 23
111.3204609598348
 33
0.0
  0
MTEXT
  5
8FAB
102
{ACAD_XDICTIONARY
360
9FC0
102
}
330
8FA6
100
AcDbEntity
  8
0
  6
ByBlock
 62
     3
100
AcDbMText
 10
360.8742786471891
 20
119.6420182632742
 30
0.0
 40
1.3
 41
0.0
 71
     5
 72
     1
  1
\U+220512.5
 11
0.241947935371454
 21
0.970289233460565
 31
0.0
 73
     1
 44
1.0
1001
ACAD
1000
MTEXTBEGIN
1070
    73
1070
     1
1070
    44
1040
1.0
1070
    74
1070
     0
1000
MTEXTEND
  0
POINT
  5
8FAC
330
8FA6
100
AcDbEntity
  8
Defpoints
  6
ByBlock
 62
     0
100
AcDbPoint
 10
360.0875198310373
 20
111.3204609598348
 30
0.0
  0
POINT
  5
8FAD
330
8FA6
100
AcDbEntity
  8
Defpoints
  6
ByBlock
 62
     0
100
AcDbPoint
 10
357.0631706388941
 20
99.19184554157782
 30
0.0
  0
ENDBLK
  5
8FAF
330
8FA6
100
AcDbEntity
  8
0
100
AcDbBlockEnd
  0
BLOCK
  5
8FBC
330
8FB0
100
AcDbEntity
  8
0
100
AcDbBlockBegin
  2
*D17
 70
     1
 10
0.0
 20
0.0
 30
0.0
  3
*D17
  1

  0
LINE
  5
8FB1
330
8FB0
100
AcDbEntity
  8
0
  6
ByBlock
 62
     6
100
AcDbLine
 10
402.0479357956078
 20
72.61557548184534
 30
0.0
 11
402.0479357956078
 21
78.02525727380871
 31
0.0
  0
LINE
  5
8FB2
330
8FB0
100
AcDbEntity
  8
0
  6
ByBlock
 62
     6
100
AcDbLine
 10
405.0479357956078
 20
70.61557548184534
 30
0.0
 11
405.0479357956078
 21
78.02525727380871
 31
0.0
  0
LINE
  5
8FB3
330
8FB0
100
AcDbEntity
  8
0
  6
ByBlock
 62
     6
100
AcDbLine
 10
400.5479357956079
 20
77.5252572738087
 30
0.0
 11
399.0479357956079
 21
77.5252572738087
 31
0.0
  0
LINE
  5
8FB4
330
8FB0
100
AcDbEntity
  8
0
  6
ByBlock
 62
     6
100
AcDbLine
 10
406.5479357956077
 20
77.5252572738087
 30
0.0
 11
408.0479357956078
 21
77.5252572738087
 31
0.0
  0
LINE
  5
8FB5
330
8FB0
100
AcDbEntity
  8
0
  6
ByBlock
 62
     6
100
AcDbLine
 10
402.0479357956078
 20
77.5252572738087
 30
0.0
 11
405.0479357956078
 21
77.5252572738087
 31
0.0
  0
SOLID
  5
8FB6
330
8FB0
100
AcDbEntity
  8
0
  6
ByBlock
 62
     6
100
AcDbTrace
 10
400.5479357956079
 20
77.7752572738087
 30
0.0
 11
400.5479357956079
 21
77.27525727380871
 31
0.0
 12
402.0479357956078
 22
77.5252572738087
 32
0.0
 13
402.0479357956078
 23
77.5252572738087
 33
0.0
  0
SOLID
  5
8FB7
330
8FB0
100
AcDbEntity
  8
0
  6
ByBlock
 62
     6
100
AcDbTrace
 10
406.5479357956077
 20
77.7752572738087
 30
0.0
 11
406.5479357956077
 21
77.27525727380871
 31
0.0
 12
405.0479357956078
 22
77.5252572738087
 32
0.0
 13
405.0479357956078
 23
77.5252572738087
 33
0.0
  0
MTEXT
  5
8FB8
330
8FB0
100
AcDbEntity
  8
0
  6
ByBlock
 62
     3
100
AcDbMText
 10
403.5479357956078
 20
78.8752572738087
 30
0.0
 40
1.5
 41
0.0
 71
     5
 72
     1
  1
3
 73
     1
 44
1.0
1001
ACAD
1000
MTEXTBEGIN
1070
    73
1070
     1
1070
    44
1040
1.0
1070
    74
1070
     0
1000
MTEXTEND
  0
POINT
  5
8FB9
330
8FB0
100
AcDbEntity
  8
Defpoints
  6
ByBlock
 62
     0
100
AcDbPoint
 10
402.0479357956078
 20
72.11557548184534
 30
0.0
  0
POINT
  5
8FBA
330
8FB0
100
AcDbEntity
  8
Defpoints
  6
ByBlock
 62
     0
100
AcDbPoint
 10
405.0479357956078
 20
70.11557548184535
 30
0.0
  0
POINT
  5
8FBB
330
8FB0
100
AcDbEntity
  8
Defpoints
  6
ByBlock
 62
     0
100
AcDbPoint
 10
405.0479357956078
 20
77.5252572738087
 30
0.0
  0
ENDBLK
  5
8FBD
330
8FB0
100
AcDbEntity
  8
0
100
AcDbBlockEnd
  0
BLOCK
  5
8FC5
330
8FBE
100
AcDbEntity
  8
0
100
AcDbBlockBegin
  2
*D18
 70
     1
 10
0.0
 20
0.0
 30
0.0
  3
*D18
  1

  0
LINE
  5
8FBF
330
8FBE
100
AcDbEntity
  8
0
  6
ByBlock
 62
     6
100
AcDbLine
 10
363.9771654055821
 20
81.51000800593454
 30
0.0
 11
360.6564203636505
 21
72.9140172922354
 31
0.0
  0
MTEXT
  5
8FC0
330
8FBE
100
AcDbEntity
  8
0
  6
ByBlock
 62
     3
100
AcDbMText
 10
362.2045447179353
 20
80.39021918261218
 30
0.0
 40
1.3
 41
0.0
 71
     5
 72
     1
  1
R3
 11
0.3603583762283007
 21
0.9328139367966704
 31
0.0
 73
     1
 44
1.0
1001
ACAD
1000
MTEXTBEGIN
1070
    73
1070
     1
1070
    44
1040
1.0
1070
    74
1070
     0
1000
MTEXTEND
  0
LINE
  5
8FC1
330
8FBE
100
AcDbEntity
  8
0
  6
ByBlock
 62
     6
100
AcDbLine
 10
359.5753452349657
 20
70.11557548184535
 30
0.0
 11
360.6564203636505
 21
72.9140172922354
 31
0.0
  0
SOLID
  5
8FC2
330
8FBE
100
AcDbEntity
  8
0
  6
ByBlock
 62
     6
100
AcDbTrace
 10
360.9022876277652
 20
74.10546569163706
 30
0.0
 11
361.2754132024839
 21
73.96132234114573
 31
0.0
 12
360.6564203636505
 22
72.9140172922354
 32
0.0
 13
360.6564203636505
 23
72.9140172922354
 33
0.0
  0
POINT
  5
8FC3
330
8FBE
100
AcDbEntity
  8
Defpoints
  6
ByBlock
 62
     0
100
AcDbPoint
 10
360.6564203636505
 20
72.9140172922354
 30
0.0
  0
POINT
  5
8FC4
330
8FBE
100
AcDbEntity
  8
Defpoints
  6
ByBlock
 62
     0
100
AcDbPoint
 10
359.5753452349657
 20
70.11557548184535
 30
0.0
  0
ENDBLK
  5
8FC6
330
8FBE
100
AcDbEntity
  8
0
100
AcDbBlockEnd
  0
BLOCK
  5
8FD1
330
8FC7
100
AcDbEntity
  8
0
100
AcDbBlockBegin
  2
*D19
 70
     1
 10
0.0
 20
0.0
 30
0.0
  3
*D19
  1

  0
LINE
  5
8FC8
330
8FC7
100
AcDbEntity
  8
0
  6
ByBlock
 62
     6
100
AcDbLine
 10
413.0479357956079
 20
70.41791865992005
 30
0.0
 11
413.0479357956079
 21
83.75416845379117
 31
0.0
  0
LINE
  5
8FC9
330
8FC7
100
AcDbEntity
  8
0
  6
ByBlock
 62
     6
100
AcDbLine
 10
401.5479357956078
 20
72.61557548184534
 30
0.0
 11
401.5479357956078
 21
83.75416845379117
 31
0.0
  0
LINE
  5
8FCA
330
8FC7
100
AcDbEntity
  8
0
  6
ByBlock
 62
     6
100
AcDbLine
 10
411.8479357956078
 20
83.25416845379114
 30
0.0
 11
402.7479357956078
 21
83.25416845379114
 31
0.0
  0
SOLID
  5
8FCB
330
8FC7
100
AcDbEntity
  8
0
  6
ByBlock
 62
     6
100
AcDbTrace
 10
411.8479357956078
 20
83.45416845379116
 30
0.0
 11
411.8479357956078
 21
83.05416845379117
 31
0.0
 12
413.0479357956079
 22
83.25416845379114
 32
0.0
 13
413.0479357956079
 23
83.25416845379114
 33
0.0
  0
SOLID
  5
8FCC
330
8FC7
100
AcDbEntity
  8
0
  6
ByBlock
 62
     6
100
AcDbTrace
 10
402.7479357956078
 20
83.45416845379116
 30
0.0
 11
402.7479357956078
 21
83.05416845379117
 31
0.0
 12
401.5479357956078
 22
83.25416845379114
 32
0.0
 13
401.5479357956078
 23
83.25416845379114
 33
0.0
  0
MTEXT
  5
8FCD
330
8FC7
100
AcDbEntity
  8
0
  6
ByBlock
 62
     3
100
AcDbMText
 10
407.2979357956079
 20
84.50416845379114
 30
0.0
 40
1.3
 41
0.0
 71
     5
 72
     1
  1
11.5
 73
     1
 44
1.0
1001
ACAD
1000
MTEXTBEGIN
1070
    73
1070
     1
1070
    44
1040
1.0
1070
    74
1070
     0
1000
MTEXTEND
  0
POINT
  5
8FCE
330
8FC7
100
AcDbEntity
  8
Defpoints
  6
ByBlock
 62
     0
100
AcDbPoint
 10
413.0479357956079
 20
69.91791865992005
 30
0.0
  0
POINT
  5
8FCF
330
8FC7
100
AcDbEntity
  8
Defpoints
  6
ByBlock
 62
     0
100
AcDbPoint
 10
401.5479357956078
 20
72.11557548184534
 30
0.0
  0
POINT
  5
8FD0
330
8FC7
100
AcDbEntity
  8
Defpoints
  6
ByBlock
 62
     0
100
AcDbPoint
 10
401.5479357956078
 20
83.25416845379114
 30
0.0
  0
ENDBLK
  5
8FD2
330
8FC7
100
AcDbEntity
  8
0
100
AcDbBlockEnd
  0
BLOCK
  5
8FDF
330
8FD3
100
AcDbEntity
  8
0
100
AcDbBlockBegin
  2
*D20
 70
     1
 10
0.0
 20
0.0
 30
0.0
  3
*D20
  1

  0
LINE
  5
8FD4
330
8FD3
100
AcDbEntity
  8
0
  6
ByBlock
 62
     6
100
AcDbLine
 10
413.0479357956078
 20
70.45291337506968
 30
0.0
 11
413.0479357956078
 21
83.75416845379117
 31
0.0
  0
LINE
  5
8FD5
330
8FD3
100
AcDbEntity
  8
0
  6
ByBlock
 62
     6
100
AcDbLine
 10
415.0479357956077
 20
70.41791865991995
 30
0.0
 11
415.0479357956077
 21
83.75416845379117
 31
0.0
  0
LINE
  5
8FD6
330
8FD3
100
AcDbEntity
  8
0
  6
ByBlock
 62
     6
100
AcDbLine
 10
411.8479357956078
 20
83.25416845379114
 30
0.0
 11
410.6479357956078
 21
83.25416845379114
 31
0.0
  0
LINE
  5
8FD7
330
8FD3
100
AcDbEntity
  8
0
  6
ByBlock
 62
     6
100
AcDbLine
 10
416.2479357956078
 20
83.25416845379114
 30
0.0
 11
417.4479357956077
 21
83.25416845379114
 31
0.0
  0
LINE
  5
8FD8
330
8FD3
100
AcDbEntity
  8
0
  6
ByBlock
 62
     6
100
AcDbLine
 10
413.0479357956078
 20
83.25416845379114
 30
0.0
 11
415.0479357956077
 21
83.25416845379114
 31
0.0
  0
SOLID
  5
8FD9
330
8FD3
100
AcDbEntity
  8
0
  6
ByBlock
 62
     6
100
AcDbTrace
 10
411.8479357956078
 20
83.45416845379116
 30
0.0
 11
411.8479357956078
 21
83.05416845379117
 31
0.0
 12
413.0479357956078
 22
83.25416845379114
 32
0.0
 13
413.0479357956078
 23
83.25416845379114
 33
0.0
  0
SOLID
  5
8FDA
330
8FD3
100
AcDbEntity
  8
0
  6
ByBlock
 62
     6
100
AcDbTrace
 10
416.2479357956078
 20
83.45416845379116
 30
0.0
 11
416.2479357956078
 21
83.05416845379117
 31
0.0
 12
415.0479357956077
 22
83.25416845379114
 32
0.0
 13
415.0479357956077
 23
83.25416845379114
 33
0.0
  0
MTEXT
  5
8FDB
330
8FD3
100
AcDbEntity
  8
0
  6
ByBlock
 62
     3
100
AcDbMText
 10
414.0479357956078
 20
84.50416845379114
 30
0.0
 40
1.3
 41
0.0
 71
     5
 72
     1
  1
(2)
 73
     1
 44
1.0
1001
ACAD
1000
MTEXTBEGIN
1070
    73
1070
     1
1070
    44
1040
1.0
1070
    74
1070
     0
1000
MTEXTEND
  0
POINT
  5
8FDC
330
8FD3
100
AcDbEntity
  8
Defpoints
  6
ByBlock
 62
     0
100
AcDbPoint
 10
413.0479357956078
 20
69.95291337506967
 30
0.0
  0
POINT
  5
8FDD
330
8FD3
100
AcDbEntity
  8
Defpoints
  6
ByBlock
 62
     0
100
AcDbPoint
 10
415.0479357956077
 20
69.91791865991996
 30
0.0
  0
POINT
  5
8FDE
330
8FD3
100
AcDbEntity
  8
Defpoints
  6
ByBlock
 62
     0
100
AcDbPoint
 10
415.0479357956077
 20
83.25416845379114
 30
0.0
  0
ENDBLK
  5
8FE0
330
8FD3
100
AcDbEntity
  8
0
100
AcDbBlockEnd
  0
BLOCK
  5
8FEB
330
8FE1
100
AcDbEntity
  8
0
100
AcDbBlockBegin
  2
*D21
 70
     1
 10
0.0
 20
0.0
 30
0.0
  3
*D21
  1

  0
LINE
  5
8FE2
330
8FE1
100
AcDbEntity
  8
0
  6
ByBlock
 62
     6
100
AcDbLine
 10
415.0479357956077
 20
70.45291337506968
 30
0.0
 11
415.0479357956077
 21
83.75416845379117
 31
0.0
  0
LINE
  5
8FE3
330
8FE1
100
AcDbEntity
  8
0
  6
ByBlock
 62
     6
100
AcDbLine
 10
422.0479357956078
 20
71.09850353171061
 30
0.0
 11
422.0479357956078
 21
83.75416845379117
 31
0.0
  0
LINE
  5
8FE4
330
8FE1
100
AcDbEntity
  8
0
  6
ByBlock
 62
     6
100
AcDbLine
 10
416.2479357956077
 20
83.25416845379114
 30
0.0
 11
420.8479357956078
 21
83.25416845379114
 31
0.0
  0
SOLID
  5
8FE5
330
8FE1
100
AcDbEntity
  8
0
  6
ByBlock
 62
     6
100
AcDbTrace
 10
416.2479357956077
 20
83.45416845379116
 30
0.0
 11
416.2479357956077
 21
83.05416845379117
 31
0.0
 12
415.0479357956077
 22
83.25416845379114
 32
0.0
 13
415.0479357956077
 23
83.25416845379114
 33
0.0
  0
SOLID
  5
8FE6
330
8FE1
100
AcDbEntity
  8
0
  6
ByBlock
 62
     6
100
AcDbTrace
 10
420.8479357956078
 20
83.45416845379116
 30
0.0
 11
420.8479357956078
 21
83.05416845379117
 31
0.0
 12
422.0479357956078
 22
83.25416845379114
 32
0.0
 13
422.0479357956078
 23
83.25416845379114
 33
0.0
  0
MTEXT
  5
8FE7
330
8FE1
100
AcDbEntity
  8
0
  6
ByBlock
 62
     3
100
AcDbMText
 10
418.5479357956078
 20
84.50416845379114
 30
0.0
 40
1.3
 41
0.0
 71
     5
 72
     1
  1
7
 73
     1
 44
1.0
1001
ACAD
1000
MTEXTBEGIN
1070
    73
1070
     1
1070
    44
1040
1.0
1070
    74
1070
     0
1000
MTEXTEND
  0
POINT
  5
8FE8
330
8FE1
100
AcDbEntity
  8
Defpoints
  6
ByBlock
 62
     0
100
AcDbPoint
 10
415.0479357956077
 20
69.95291337506967
 30
0.0
  0
POINT
  5
8FE9
330
8FE1
100
AcDbEntity
  8
Defpoints
  6
ByBlock
 62
     0
100
AcDbPoint
 10
422.0479357956078
 20
70.59850353171061
 30
0.0
  0
POINT
  5
8FEA
330
8FE1
100
AcDbEntity
  8
Defpoints
  6
ByBlock
 62
     0
100
AcDbPoint
 10
422.0479357956078
 20
83.25416845379114
 30
0.0
  0
ENDBLK
  5
8FEC
330
8FE1
100
AcDbEntity
  8
0
100
AcDbBlockEnd
  0
BLOCK
  5
8FF7
330
8FED
100
AcDbEntity
  8
0
100
AcDbBlockBegin
  2
*D22
 70
     1
 10
0.0
 20
0.0
 30
0.0
  3
*D22
  1

  0
LINE
  5
8FEE
330
8FED
100
AcDbEntity
  8
0
  6
ByBlock
 62
     6
100
AcDbLine
 10
412.5479357956079
 20
60.31323230377058
 30
0.0
 11
410.9620404473014
 21
60.31323230377058
 31
0.0
  0
LINE
  5
8FEF
330
8FED
100
AcDbEntity
  8
0
  6
ByBlock
 62
     6
100
AcDbLine
 10
412.5479357956079
 20
69.91791865992005
 30
0.0
 11
410.9620404473014
 21
69.91791865992005
 31
0.0
  0
LINE
  5
8FF0
330
8FED
100
AcDbEntity
  8
0
  6
ByBlock
 62
     6
100
AcDbLine
 10
411.4620404473014
 20
61.81323230377058
 30
0.0
 11
411.4620404473014
 21
68.41791865992004
 31
0.0
  0
SOLID
  5
8FF1
330
8FED
100
AcDbEntity
  8
0
  6
ByBlock
 62
     6
100
AcDbTrace
 10
411.2120404473015
 20
61.81323230377058
 30
0.0
 11
411.7120404473014
 21
61.81323230377058
 31
0.0
 12
411.4620404473014
 22
60.31323230377058
 32
0.0
 13
411.4620404473014
 23
60.31323230377058
 33
0.0
  0
SOLID
  5
8FF2
330
8FED
100
AcDbEntity
  8
0
  6
ByBlock
 62
     6
100
AcDbTrace
 10
411.2120404473015
 20
68.41791865992004
 30
0.0
 11
411.7120404473014
 21
68.41791865992004
 31
0.0
 12
411.4620404473014
 22
69.91791865992005
 32
0.0
 13
411.4620404473014
 23
69.91791865992005
 33
0.0
  0
MTEXT
  5
8FF3
102
{ACAD_XDICTIONARY
360
9FC2
102
}
330
8FED
100
AcDbEntity
  8
0
  6
ByBlock
 62
     3
100
AcDbMText
 10
410.1120404473014
 20
65.11557548184531
 30
0.0
 40
1.5
 41
0.0
 71
     5
 72
     1
  1
\U+22059.6
 11
0.0000000000000001
 21
1.0
 31
0.0
 73
     1
 44
1.0
1001
ACAD
1000
MTEXTBEGIN
1070
    73
1070
     1
1070
    44
1040
1.0
1070
    74
1070
     0
1000
MTEXTEND
  0
POINT
  5
8FF4
330
8FED
100
AcDbEntity
  8
Defpoints
  6
ByBlock
 62
     0
100
AcDbPoint
 10
413.0479357956079
 20
60.31323230377058
 30
0.0
  0
POINT
  5
8FF5
330
8FED
100
AcDbEntity
  8
Defpoints
  6
ByBlock
 62
     0
100
AcDbPoint
 10
413.0479357956079
 20
69.91791865992005
 30
0.0
  0
POINT
  5
8FF6
330
8FED
100
AcDbEntity
  8
Defpoints
  6
ByBlock
 62
     0
100
AcDbPoint
 10
411.4620404473014
 20
69.91791865992005
 30
0.0
  0
ENDBLK
  5
8FF8
330
8FED
100
AcDbEntity
  8
0
100
AcDbBlockEnd
  0
BLOCK
  5
9003
330
8FF9
100
AcDbEntity
  8
0
100
AcDbBlockBegin
  2
*D23
 70
     1
 10
0.0
 20
0.0
 30
0.0
  3
*D23
  1

  0
LINE
  5
8FFA
330
8FF9
100
AcDbEntity
  8
0
  6
ByBlock
 62
     6
100
AcDbLine
 10
401.5479357956078
 20
97.75615325070562
 30
0.0
 11
401.5479357956078
 21
91.61520810645081
 31
0.0
  0
LINE
  5
8FFB
330
8FF9
100
AcDbEntity
  8
0
  6
ByBlock
 62
     6
100
AcDbLine
 10
422.0479357956078
 20
99.27322520084032
 30
0.0
 11
422.0479357956078
 21
91.61520810645081
 31
0.0
  0
LINE
  5
8FFC
330
8FF9
100
AcDbEntity
  8
0
  6
ByBlock
 62
     6
100
AcDbLine
 10
402.7479357956078
 20
92.11520810645081
 30
0.0
 11
420.8479357956078
 21
92.11520810645081
 31
0.0
  0
SOLID
  5
8FFD
330
8FF9
100
AcDbEntity
  8
0
  6
ByBlock
 62
     6
100
AcDbTrace
 10
402.7479357956078
 20
92.31520810645081
 30
0.0
 11
402.7479357956078
 21
91.9152081064508
 31
0.0
 12
401.5479357956078
 22
92.11520810645081
 32
0.0
 13
401.5479357956078
 23
92.11520810645081
 33
0.0
  0
SOLID
  5
8FFE
330
8FF9
100
AcDbEntity
  8
0
  6
ByBlock
 62
     6
100
AcDbTrace
 10
420.8479357956078
 20
92.31520810645081
 30
0.0
 11
420.8479357956078
 21
91.9152081064508
 31
0.0
 12
422.0479357956078
 22
92.11520810645081
 32
0.0
 13
422.0479357956078
 23
92.11520810645081
 33
0.0
  0
MTEXT
  5
8FFF
330
8FF9
100
AcDbEntity
  8
0
  6
ByBlock
 62
     3
100
AcDbMText
 10
411.7979357956078
 20
93.36520810645081
 30
0.0
 40
1.3
 41
0.0
 71
     5
 72
     1
  1
20.5
 73
     1
 44
1.0
1001
ACAD
1000
MTEXTBEGIN
1070
    73
1070
     1
1070
    44
1040
1.0
1070
    74
1070
     0
1000
MTEXTEND
  0
POINT
  5
9000
330
8FF9
100
AcDbEntity
  8
Defpoints
  6
ByBlock
 62
     0
100
AcDbPoint
 10
401.5479357956078
 20
98.25615325070565
 30
0.0
  0
POINT
  5
9001
330
8FF9
100
AcDbEntity
  8
Defpoints
  6
ByBlock
 62
     0
100
AcDbPoint
 10
422.0479357956078
 20
99.7732252008403
 30
0.0
  0
POINT
  5
9002
330
8FF9
100
AcDbEntity
  8
Defpoints
  6
ByBlock
 62
     0
100
AcDbPoint
 10
422.0479357956078
 20
92.11520810645081
 30
0.0
  0
ENDBLK
  5
9004
330
8FF9
100
AcDbEntity
  8
0
100
AcDbBlockEnd
  0
BLOCK
  5
900F
330
9005
100
AcDbEntity
  8
0
100
AcDbBlockBegin
  2
*D24
 70
     1
 10
0.0
 20
0.0
 30
0.0
  3
*D24
  1

  0
LINE
  5
9006
330
9005
100
AcDbEntity
  8
0
  6
ByBlock
 62
     6
100
AcDbLine
 10
419.0479357956077
 20
97.50615325070562
 30
0.0
 11
419.0479357956077
 21
95.17729514942386
 31
0.0
  0
LINE
  5
9007
330
9005
100
AcDbEntity
  8
0
  6
ByBlock
 62
     6
100
AcDbLine
 10
404.0479357956078
 20
95.75615325070563
 30
0.0
 11
404.0479357956078
 21
95.17729514942386
 31
0.0
  0
LINE
  5
9008
330
9005
100
AcDbEntity
  8
0
  6
ByBlock
 62
     6
100
AcDbLine
 10
417.8479357956076
 20
95.67729514942387
 30
0.0
 11
405.2479357956078
 21
95.67729514942387
 31
0.0
  0
SOLID
  5
9009
330
9005
100
AcDbEntity
  8
0
  6
ByBlock
 62
     6
100
AcDbTrace
 10
417.8479357956076
 20
95.87729514942386
 30
0.0
 11
417.8479357956076
 21
95.47729514942387
 31
0.0
 12
419.0479357956077
 22
95.67729514942387
 32
0.0
 13
419.0479357956077
 23
95.67729514942387
 33
0.0
  0
SOLID
  5
900A
330
9005
100
AcDbEntity
  8
0
  6
ByBlock
 62
     6
100
AcDbTrace
 10
405.2479357956078
 20
95.87729514942386
 30
0.0
 11
405.2479357956078
 21
95.47729514942387
 31
0.0
 12
404.0479357956078
 22
95.67729514942387
 32
0.0
 13
404.0479357956078
 23
95.67729514942387
 33
0.0
  0
MTEXT
  5
900B
330
9005
100
AcDbEntity
  8
0
  6
ByBlock
 62
     3
100
AcDbMText
 10
411.5479357956078
 20
96.92729514942387
 30
0.0
 40
1.3
 41
0.0
 71
     5
 72
     1
  1
15
 73
     1
 44
1.0
1001
ACAD
1000
MTEXTBEGIN
1070
    73
1070
     1
1070
    44
1040
1.0
1070
    74
1070
     0
1000
MTEXTEND
  0
POINT
  5
900C
330
9005
100
AcDbEntity
  8
Defpoints
  6
ByBlock
 62
     0
100
AcDbPoint
 10
419.0479357956077
 20
98.00615325070562
 30
0.0
  0
POINT
  5
900D
330
9005
100
AcDbEntity
  8
Defpoints
  6
ByBlock
 62
     0
100
AcDbPoint
 10
404.0479357956078
 20
96.25615325070562
 30
0.0
  0
POINT
  5
900E
330
9005
100
AcDbEntity
  8
Defpoints
  6
ByBlock
 62
     0
100
AcDbPoint
 10
404.0479357956078
 20
95.67729514942387
 30
0.0
  0
ENDBLK
  5
9010
330
9005
100
AcDbEntity
  8
0
100
AcDbBlockEnd
  0
BLOCK
  5
901D
330
9011
100
AcDbEntity
  8
0
100
AcDbBlockBegin
  2
*D25
 70
     1
 10
0.0
 20
0.0
 30
0.0
  3
*D25
  1

  0
LINE
  5
9012
330
9011
100
AcDbEntity
  8
0
  6
ByBlock
 62
     6
100
AcDbLine
 10
419.0479357956077
 20
97.50615325070562
 30
0.0
 11
419.0479357956077
 21
95.17729514942386
 31
0.0
  0
LINE
  5
9013
330
9011
100
AcDbEntity
  8
0
  6
ByBlock
 62
     6
100
AcDbLine
 10
422.0479357956078
 20
99.27322520084032
 30
0.0
 11
422.0479357956078
 21
95.17729514942386
 31
0.0
  0
LINE
  5
9014
330
9011
100
AcDbEntity
  8
0
  6
ByBlock
 62
     6
100
AcDbLine
 10
417.8479357956076
 20
95.67729514942387
 30
0.0
 11
416.6479357956077
 21
95.67729514942387
 31
0.0
  0
LINE
  5
9015
330
9011
100
AcDbEntity
  8
0
  6
ByBlock
 62
     6
100
AcDbLine
 10
423.2479357956078
 20
95.67729514942387
 30
0.0
 11
424.4479357956079
 21
95.67729514942387
 31
0.0
  0
LINE
  5
9016
330
9011
100
AcDbEntity
  8
0
  6
ByBlock
 62
     6
100
AcDbLine
 10
419.0479357956077
 20
95.67729514942387
 30
0.0
 11
422.0479357956078
 21
95.67729514942387
 31
0.0
  0
SOLID
  5
9017
330
9011
100
AcDbEntity
  8
0
  6
ByBlock
 62
     6
100
AcDbTrace
 10
417.8479357956076
 20
95.87729514942386
 30
0.0
 11
417.8479357956076
 21
95.47729514942387
 31
0.0
 12
419.0479357956077
 22
95.67729514942387
 32
0.0
 13
419.0479357956077
 23
95.67729514942387
 33
0.0
  0
SOLID
  5
9018
330
9011
100
AcDbEntity
  8
0
  6
ByBlock
 62
     6
100
AcDbTrace
 10
423.2479357956078
 20
95.87729514942386
 30
0.0
 11
423.2479357956078
 21
95.47729514942387
 31
0.0
 12
422.0479357956078
 22
95.67729514942387
 32
0.0
 13
422.0479357956078
 23
95.67729514942387
 33
0.0
  0
MTEXT
  5
9019
330
9011
100
AcDbEntity
  8
0
  6
ByBlock
 62
     3
100
AcDbMText
 10
420.5479357956078
 20
96.92729514942387
 30
0.0
 40
1.3
 41
0.0
 71
     5
 72
     1
  1
3
 73
     1
 44
1.0
1001
ACAD
1000
MTEXTBEGIN
1070
    73
1070
     1
1070
    44
1040
1.0
1070
    74
1070
     0
1000
MTEXTEND
  0
POINT
  5
901A
330
9011
100
AcDbEntity
  8
Defpoints
  6
ByBlock
 62
     0
100
AcDbPoint
 10
419.0479357956077
 20
98.00615325070562
 30
0.0
  0
POINT
  5
901B
330
9011
100
AcDbEntity
  8
Defpoints
  6
ByBlock
 62
     0
100
AcDbPoint
 10
422.0479357956078
 20
99.7732252008403
 30
0.0
  0
POINT
  5
901C
330
9011
100
AcDbEntity
  8
Defpoints
  6
ByBlock
 62
     0
100
AcDbPoint
 10
422.0479357956078
 20
95.67729514942387
 30
0.0
  0
ENDBLK
  5
901E
330
9011
100
AcDbEntity
  8
0
100
AcDbBlockEnd
  0
BLOCK
  5
9029
330
901F
100
AcDbEntity
  8
0
100
AcDbBlockBegin
  2
*D26
 70
     1
 10
0.0
 20
0.0
 30
0.0
  3
*D26
  1

  0
LINE
  5
9020
330
901F
100
AcDbEntity
  8
0
  6
ByBlock
 62
     6
100
AcDbLine
 10
415.5479357956078
 20
108.2561532507056
 30
0.0
 11
426.9538737712048
 21
108.2561532507056
 31
0.0
  0
LINE
  5
9021
330
901F
100
AcDbEntity
  8
0
  6
ByBlock
 62
     6
100
AcDbLine
 10
415.5479357956078
 20
102.2561532507056
 30
0.0
 11
426.9538737712048
 21
102.2561532507056
 31
0.0
  0
LINE
  5
9022
330
901F
100
AcDbEntity
  8
0
  6
ByBlock
 62
     6
100
AcDbLine
 10
426.4538737712048
 20
106.7561532507055
 30
0.0
 11
426.4538737712048
 21
103.7561532507055
 31
0.0
  0
SOLID
  5
9023
330
901F
100
AcDbEntity
  8
0
  6
ByBlock
 62
     6
100
AcDbTrace
 10
426.2038737712048
 20
106.7561532507055
 30
0.0
 11
426.7038737712048
 21
106.7561532507055
 31
0.0
 12
426.4538737712048
 22
108.2561532507056
 32
0.0
 13
426.4538737712048
 23
108.2561532507056
 33
0.0
  0
SOLID
  5
9024
330
901F
100
AcDbEntity
  8
0
  6
ByBlock
 62
     6
100
AcDbTrace
 10
426.2038737712048
 20
103.7561532507055
 30
0.0
 11
426.7038737712048
 21
103.7561532507055
 31
0.0
 12
426.4538737712048
 22
102.2561532507056
 32
0.0
 13
426.4538737712048
 23
102.2561532507056
 33
0.0
  0
MTEXT
  5
9025
102
{ACAD_XDICTIONARY
360
9FC4
102
}
330
901F
100
AcDbEntity
  8
0
  6
ByBlock
 62
     3
100
AcDbMText
 10
425.1038737712049
 20
105.2561532507056
 30
0.0
 40
1.5
 41
0.0
 71
     5
 72
     1
  1
\U+22056
 11
0.0000000000000001
 21
1.0
 31
0.0
 73
     1
 44
1.0
1001
ACAD
1000
MTEXTBEGIN
1070
    73
1070
     1
1070
    44
1040
1.0
1070
    74
1070
     0
1000
MTEXTEND
  0
POINT
  5
9026
330
901F
100
AcDbEntity
  8
Defpoints
  6
ByBlock
 62
     0
100
AcDbPoint
 10
415.0479357956077
 20
108.2561532507056
 30
0.0
  0
POINT
  5
9027
330
901F
100
AcDbEntity
  8
Defpoints
  6
ByBlock
 62
     0
100
AcDbPoint
 10
415.0479357956077
 20
102.2561532507056
 30
0.0
  0
POINT
  5
9028
330
901F
100
AcDbEntity
  8
Defpoints
  6
ByBlock
 62
     0
100
AcDbPoint
 10
426.4538737712048
 20
102.2561532507056
 30
0.0
  0
ENDBLK
  5
902A
330
901F
100
AcDbEntity
  8
0
100
AcDbBlockEnd
  0
BLOCK
  5
9037
330
902B
100
AcDbEntity
  8
0
100
AcDbBlockBegin
  2
*D27
 70
     1
 10
0.0
 20
0.0
 30
0.0
  3
*D27
  1

  0
LINE
  5
902C
330
902B
100
AcDbEntity
  8
0
  6
ByBlock
 62
     6
100
AcDbLine
 10
415.0479357956077
 20
108.7561532507056
 30
0.0
 11
415.0479357956077
 21
117.5986745294046
 31
0.0
  0
LINE
  5
902D
330
902B
100
AcDbEntity
  8
0
  6
ByBlock
 62
     6
100
AcDbLine
 10
413.0479357956078
 20
108.7561532507056
 30
0.0
 11
413.0479357956078
 21
117.5986745294046
 31
0.0
  0
LINE
  5
902E
330
902B
100
AcDbEntity
  8
0
  6
ByBlock
 62
     6
100
AcDbLine
 10
416.2479357956078
 20
117.0986745294046
 30
0.0
 11
417.4479357956077
 21
117.0986745294046
 31
0.0
  0
LINE
  5
902F
330
902B
100
AcDbEntity
  8
0
  6
ByBlock
 62
     6
100
AcDbLine
 10
411.8479357956078
 20
117.0986745294046
 30
0.0
 11
410.6479357956078
 21
117.0986745294046
 31
0.0
  0
LINE
  5
9030
330
902B
100
AcDbEntity
  8
0
  6
ByBlock
 62
     6
100
AcDbLine
 10
415.0479357956077
 20
117.0986745294046
 30
0.0
 11
413.0479357956078
 21
117.0986745294046
 31
0.0
  0
SOLID
  5
9031
330
902B
100
AcDbEntity
  8
0
  6
ByBlock
 62
     6
100
AcDbTrace
 10
416.2479357956078
 20
117.2986745294046
 30
0.0
 11
416.2479357956078
 21
116.8986745294045
 31
0.0
 12
415.0479357956077
 22
117.0986745294046
 32
0.0
 13
415.0479357956077
 23
117.0986745294046
 33
0.0
  0
SOLID
  5
9032
330
902B
100
AcDbEntity
  8
0
  6
ByBlock
 62
     6
100
AcDbTrace
 10
411.8479357956078
 20
117.2986745294046
 30
0.0
 11
411.8479357956078
 21
116.8986745294045
 31
0.0
 12
413.0479357956078
 22
117.0986745294046
 32
0.0
 13
413.0479357956078
 23
117.0986745294046
 33
0.0
  0
MTEXT
  5
9033
330
902B
100
AcDbEntity
  8
0
  6
ByBlock
 62
     3
100
AcDbMText
 10
414.0479357956078
 20
118.3486745294046
 30
0.0
 40
1.3
 41
0.0
 71
     5
 72
     1
  1
2
 73
     1
 44
1.0
1001
ACAD
1000
MTEXTBEGIN
1070
    73
1070
     1
1070
    44
1040
1.0
1070
    74
1070
     0
1000
MTEXTEND
  0
POINT
  5
9034
330
902B
100
AcDbEntity
  8
Defpoints
  6
ByBlock
 62
     0
100
AcDbPoint
 10
415.0479357956077
 20
108.2561532507056
 30
0.0
  0
POINT
  5
9035
330
902B
100
AcDbEntity
  8
Defpoints
  6
ByBlock
 62
     0
100
AcDbPoint
 10
413.0479357956078
 20
108.2561532507056
 30
0.0
  0
POINT
  5
9036
330
902B
100
AcDbEntity
  8
Defpoints
  6
ByBlock
 62
     0
100
AcDbPoint
 10
413.0479357956078
 20
117.0986745294046
 30
0.0
  0
ENDBLK
  5
9038
330
902B
100
AcDbEntity
  8
0
100
AcDbBlockEnd
  0
BLOCK
  5
9043
330
9039
100
AcDbEntity
  8
0
100
AcDbBlockBegin
  2
*D28
 70
     1
 10
0.0
 20
0.0
 30
0.0
  3
*D28
  1

  0
LINE
  5
903A
330
9039
100
AcDbEntity
  8
0
  6
ByBlock
 62
     6
100
AcDbLine
 10
418.0479357956078
 20
110.2561532507056
 30
0.0
 11
418.0479357956078
 21
117.5986745294046
 31
0.0
  0
LINE
  5
903B
330
9039
100
AcDbEntity
  8
0
  6
ByBlock
 62
     6
100
AcDbLine
 10
415.0479357956077
 20
108.7561532507056
 30
0.0
 11
415.0479357956077
 21
117.5986745294046
 31
0.0
  0
LINE
  5
903C
330
9039
100
AcDbEntity
  8
0
  6
ByBlock
 62
     6
100
AcDbLine
 10
416.8479357956076
 20
117.0986745294046
 30
0.0
 11
415.0479357956077
 21
117.0986745294046
 31
0.0
  0
SOLID
  5
903D
330
9039
100
AcDbEntity
  8
0
  6
ByBlock
 62
     6
100
AcDbTrace
 10
416.8479357956076
 20
117.2986745294046
 30
0.0
 11
416.8479357956076
 21
116.8986745294045
 31
0.0
 12
418.0479357956078
 22
117.0986745294046
 32
0.0
 13
418.0479357956078
 23
117.0986745294046
 33
0.0
  0
INSERT
  5
903E
330
9039
100
AcDbEntity
  8
0
  6
ByBlock
 62
     6
100
AcDbBlockReference
  2
_DOTSMALL
 10
415.0479357956077
 20
117.0986745294046
 30
0.0
 41
1.199999999999999
 42
1.199999999999999
 43
1.199999999999999
 50
180.0
  0
MTEXT
  5
903F
330
9039
100
AcDbEntity
  8
0
  6
ByBlock
 62
     3
100
AcDbMText
 10
416.8479357956076
 20
118.3486745294046
 30
0.0
 40
1.3
 41
0.0
 71
     5
 72
     1
  1
3
 73
     1
 44
1.0
1001
ACAD
1000
MTEXTBEGIN
1070
    73
1070
     1
1070
    44
1040
1.0
1070
    74
1070
     0
1000
MTEXTEND
  0
POINT
  5
9040
330
9039
100
AcDbEntity
  8
Defpoints
  6
ByBlock
 62
     0
100
AcDbPoint
 10
418.0479357956078
 20
109.7561532507056
 30
0.0
  0
POINT
  5
9041
330
9039
100
AcDbEntity
  8
Defpoints
  6
ByBlock
 62
     0
100
AcDbPoint
 10
415.0479357956077
 20
108.2561532507056
 30
0.0
  0
POINT
  5
9042
330
9039
100
AcDbEntity
  8
Defpoints
  6
ByBlock
 62
     0
100
AcDbPoint
 10
415.0479357956077
 20
117.0986745294046
 30
0.0
  0
ENDBLK
  5
9044
330
9039
100
AcDbEntity
  8
0
100
AcDbBlockEnd
  0
BLOCK
  5
9051
330
9045
100
AcDbEntity
  8
0
100
AcDbBlockBegin
  2
*D29
 70
     1
 10
0.0
 20
0.0
 30
0.0
  3
*D29
  1

  0
LINE
  5
9046
330
9045
100
AcDbEntity
  8
0
  6
ByBlock
 62
     6
100
AcDbLine
 10
418.0479357956078
 20
110.2561532507055
 30
0.0
 11
418.0479357956078
 21
117.5986745294046
 31
0.0
  0
LINE
  5
9047
330
9045
100
AcDbEntity
  8
0
  6
ByBlock
 62
     6
100
AcDbLine
 10
422.0479357956078
 20
111.2390813005709
 30
0.0
 11
422.0479357956078
 21
117.5986745294046
 31
0.0
  0
LINE
  5
9048
330
9045
100
AcDbEntity
  8
0
  6
ByBlock
 62
     6
100
AcDbLine
 10
416.5479357956078
 20
117.0986745294046
 30
0.0
 11
415.0479357956077
 21
117.0986745294046
 31
0.0
  0
LINE
  5
9049
330
9045
100
AcDbEntity
  8
0
  6
ByBlock
 62
     6
100
AcDbLine
 10
423.5479357956076
 20
117.0986745294046
 30
0.0
 11
425.0479357956076
 21
117.0986745294046
 31
0.0
  0
LINE
  5
904A
330
9045
100
AcDbEntity
  8
0
  6
ByBlock
 62
     6
100
AcDbLine
 10
418.0479357956078
 20
117.0986745294046
 30
0.0
 11
422.0479357956078
 21
117.0986745294046
 31
0.0
  0
SOLID
  5
904B
330
9045
100
AcDbEntity
  8
0
  6
ByBlock
 62
     6
100
AcDbTrace
 10
416.5479357956078
 20
117.3486745294046
 30
0.0
 11
416.5479357956078
 21
116.8486745294045
 31
0.0
 12
418.0479357956078
 22
117.0986745294046
 32
0.0
 13
418.0479357956078
 23
117.0986745294046
 33
0.0
  0
SOLID
  5
904C
330
9045
100
AcDbEntity
  8
0
  6
ByBlock
 62
     6
100
AcDbTrace
 10
423.5479357956076
 20
117.3486745294046
 30
0.0
 11
423.5479357956076
 21
116.8486745294045
 31
0.0
 12
422.0479357956078
 22
117.0986745294046
 32
0.0
 13
422.0479357956078
 23
117.0986745294046
 33
0.0
  0
MTEXT
  5
904D
330
9045
100
AcDbEntity
  8
0
  6
ByBlock
 62
     3
100
AcDbMText
 10
420.0479357956078
 20
118.4486745294045
 30
0.0
 40
1.5
 41
0.0
 71
     5
 72
     1
  1
4
 73
     1
 44
1.0
1001
ACAD
1000
MTEXTBEGIN
1070
    73
1070
     1
1070
    44
1040
1.0
1070
    74
1070
     0
1000
MTEXTEND
  0
POINT
  5
904E
330
9045
100
AcDbEntity
  8
Defpoints
  6
ByBlock
 62
     0
100
AcDbPoint
 10
418.0479357956078
 20
109.7561532507056
 30
0.0
  0
POINT
  5
904F
330
9045
100
AcDbEntity
  8
Defpoints
  6
ByBlock
 62
     0
100
AcDbPoint
 10
422.0479357956078
 20
110.7390813005709
 30
0.0
  0
POINT
  5
9050
330
9045
100
AcDbEntity
  8
Defpoints
  6
ByBlock
 62
     0
100
AcDbPoint
 10
422.0479357956078
 20
117.0986745294046
 30
0.0
  0
ENDBLK
  5
9052
330
9045
100
AcDbEntity
  8
0
100
AcDbBlockEnd
  0
BLOCK
  5
905C
330
9053
100
AcDbEntity
  8
0
100
AcDbBlockBegin
  2
*D30
 70
     1
 10
0.0
 20
0.0
 30
0.0
  3
*D30
  1

  0
LINE
  5
9054
330
9053
100
AcDbEntity
  8
0
  6
ByBlock
 62
     6
100
AcDbLine
 10
427.5135796387943
 20
123.6749892494183
 30
0.0
 11
422.2844887361949
 21
112.2979729773655
 31
0.0
  0
LINE
  5
9055
330
9053
100
AcDbEntity
  8
0
  6
ByBlock
 62
     6
100
AcDbLine
 10
415.8113828550203
 20
98.21433352404577
 30
0.0
 11
415.1849532536163
 21
96.85140067372451
 31
0.0
  0
MTEXT
  5
9056
102
{ACAD_XDICTIONARY
360
9FC6
102
}
330
9053
100
AcDbEntity
  8
0
  6
ByBlock
 62
     3
100
AcDbMText
 10
424.8879139637031
 20
121.1948925249644
 30
0.0
 40
1.5
 41
0.0
 71
     5
 72
     1
  1
\U+220512.5
 11
0.4176197342693279
 21
0.9086219002141737
 31
0.0
 73
     1
 44
1.0
1001
ACAD
1000
MTEXTBEGIN
1070
    73
1070
     1
1070
    44
1040
1.0
1070
    74
1070
     0
1000
MTEXTEND
  0
LINE
  5
9057
330
9053
100
AcDbEntity
  8
0
  6
ByBlock
 62
     6
100
AcDbLine
 10
416.4378124564244
 20
99.57726637436705
 30
0.0
 11
421.658059134791
 21
110.9350401270442
 31
0.0
  0
SOLID
  5
9058
330
9053
100
AcDbEntity
  8
0
  6
ByBlock
 62
     6
100
AcDbTrace
 10
415.5842273799668
 20
98.31873845761313
 30
0.0
 11
416.038538330074
 21
98.10992859047843
 31
0.0
 12
416.4378124564244
 22
99.57726637436705
 32
0.0
 13
416.4378124564244
 23
99.57726637436705
 33
0.0
  0
SOLID
  5
9059
330
9053
100
AcDbEntity
  8
0
  6
ByBlock
 62
     6
100
AcDbTrace
 10
422.0573332611415
 20
112.4023779109328
 30
0.0
 11
422.5116442112486
 21
112.193568043798
 31
0.0
 12
421.658059134791
 22
110.9350401270442
 32
0.0
 13
421.658059134791
 23
110.9350401270442
 33
0.0
  0
POINT
  5
905A
330
9053
100
AcDbEntity
  8
Defpoints
  6
ByBlock
 62
     0
100
AcDbPoint
 10
421.658059134791
 20
110.9350401270442
 30
0.0
  0
POINT
  5
905B
330
9053
100
AcDbEntity
  8
Defpoints
  6
ByBlock
 62
     0
100
AcDbPoint
 10
416.4378124564244
 20
99.57726637436705
 30
0.0
  0
ENDBLK
  5
905D
330
9053
100
AcDbEntity
  8
0
100
AcDbBlockEnd
  0
BLOCK
  5
90BC
330
905E
100
AcDbEntity
  8
0
100
AcDbBlockBegin
  2
A$C569F62FC
 70
     0
 10
0.0
 20
0.0
 30
0.0
  3
A$C569F62FC
  1

  0
DIMENSION
  5
905F
330
905E
100
AcDbEntity
  8
標註線
100
AcDbDimension
  2
*D14
 10
8.374137960209223
 20
5.300082219531957
 30
0.0
 11
2.77865948735507
 21
0.9780660706437059
 31
0.0
 12
-349.2012072747562
 22
-52.81549326231356
 32
0.0
 70
   132
 71
     5
 42
-1.0
  3
ISO-25
100
AcDbRadialDimension
 15
7.582732352561778
 25
4.688790828962481
 35
0.0
 40
0.0
1001
ACAD
1000
DSTYLE
1002
{
1070
    41
1040
1.5
1070
   140
1040
1.5
1002
}
  0
DIMENSION
  5
9060
330
905E
100
AcDbEntity
  8
本体外線
100
AcDbDimension
  2
*D30
 10
22.26401462102604
 20
46.76177311205346
 30
0.0
 11
31.94075569359382
 21
67.81561262138729
 31
0.0
 12
-394.1737978353984
 22
-52.81549326231356
 32
0.0
 70
   131
 71
     5
 42
-1.0
  3
ISO-25
100
AcDbDiametricDimension
 15
27.48426129939264
 25
58.11954686473065
 35
0.0
 40
0.0
1001
ACAD
1000
DSTYLE
1002
{
1070
   288
1070
     1
1070
   140
1040
1.5
1070
    40
1040
1.0
1070
   287
1070
     4
1070
    41
1040
1.5
1002
}
  0
HATCH
  5
9061
330
905E
100
AcDbEntity
  8
剖面線
100
AcDbHatch
 10
0.0
 20
0.0
 30
0.0
210
0.0
220
0.0
230
1.0
  2
ANSI31
 70
     0
 71
     1
 91
        6
 92
        7
 72
     1
 73
     1
 93
        6
 10
9.874137960209452
 20
58.690659988392
 42
0.0
 10
9.874137960209452
 20
60.44065998839212
 42
0.0
 10
8.374137960209386
 20
60.44065998839212
 42
0.4142135623730919
 10
7.374137960209394
 20
59.4406599883921
 42
0.0
 10
7.374137960209394
 20
58.45501780947316
 42
0.0
 10
8.174137960209449
 20
58.45501780947316
 42
-0.0689767769294576
 97
        6
330
90AC
330
90AB
330
9069
330
90AA
330
90A5
330
9062
 92
        7
 72
     1
 73
     1
 93
       12
 10
18.87413796020939
 20
55.44065998839204
 42
0.0
 10
20.87413796020941
 20
55.44065998839206
 42
0.0
 10
23.87413796020935
 20
56.94065998839203
 42
0.0
 10
24.87413796020935
 20
56.94065998839207
 42
0.0
 10
24.87413796020935
 20
58.69065998839205
 42
0.1753905296791026
 10
20.8741379602094
 20
57.24300316646675
 42
0.0
 10
18.87413796020954
 20
57.24300316646679
 42
0.0
 10
11.49764590617572
 20
60.22233752098831
 42
0.0962607620508528
 10
10.37413796020936
 20
60.44065998839212
 42
0.0
 10
9.874137960209452
 20
60.44065998839211
 42
0.0
 10
9.874137960209452
 20
58.690659988392
 42
-0.0996989883972994
 10
12.29350229108232
 20
58.20340032910667
 42
0.0
 97
       12
330
90AD
330
90AC
330
9062
330
90A5
330
90B7
330
90B3
330
90BB
330
90BA
330
9066
330
90B9
330
90B4
330
90A4
 92
        7
 72
     1
 73
     1
 93
        4
 10
24.87413796020935
 20
58.69065998839206
 42
0.0
 10
24.87413796020935
 20
56.94065998839203
 42
0.0
 10
27.87413796020939
 20
56.94065998839207
 42
0.0
 10
27.8741379602094
 20
57.92358803825734
 42
0.1258214024458141
 97
        4
330
90B9
330
9066
330
90BA
330
9065
 92
        7
 72
     1
 73
     1
 93
        4
 10
24.87413796020935
 20
47.94065998839207
 42
0.0
 10
24.87413796020935
 20
46.19065998839203
 42
0.125821402445814
 10
27.8741379602094
 20
46.95773193852676
 42
0.0
 10
27.87413796020939
 20
47.94065998839204
 42
0.0
 97
        4
330
90A2
330
9066
330
90A1
330
9065
 92
        7
 72
     1
 73
     1
 93
       12
 10
23.87413796020934
 20
47.94065998839211
 42
0.0
 10
20.87413796020941
 20
49.44065998839207
 42
0.0
 10
18.87413796020962
 20
49.44065998839207
 42
0.0
 10
12.29350229108233
 20
46.67791964767736
 42
-0.0996989883972999
 10
9.874137960209452
 20
46.190659988392
 42
0.0
 10
9.874137960209452
 20
44.44065998839206
 42
0.0
 10
10.37413796020941
 20
44.44065998839206
 42
0.0962607620508851
 10
11.49764590617616
 20
44.65898245579587
 42
0.0
 10
18.87413796020989
 20
47.63831681031732
 42
0.0
 10
20.87413796020936
 20
47.63831681031739
 42
0.175390529679105
 10
24.87413796020935
 20
46.19065998839203
 42
0.0
 10
24.87413796020935
 20
47.94065998839211
 42
0.0
 97
       12
330
90A2
330
9063
330
90B5
330
9064
330
906E
330
9062
330
9087
330
9088
330
906D
330
90A0
330
90A1
330
9066
 92
        7
 72
     1
 73
     1
 93
        6
 10
9.874137960209452
 20
46.190659988392
 42
-0.0689767769294627
 10
8.17413796020932
 20
46.42630216731088
 42
0.0
 10
7.374137960209394
 20
46.42630216731088
 42
0.0
 10
7.374137960209394
 20
45.44065998839204
 42
0.4142135623730951
 10
8.374137960209393
 20
44.44065998839206
 42
0.0
 10
9.874137960209452
 20
44.44065998839206
 42
0.0
 97
        6
330
906E
330
9086
330
9069
330
9085
330
9087
330
9062
 75
     0
 76
     1
 52
0.0
 41
1.0
 77
     0
 78
     1
 53
45.0
 43
-394.1737978353984
 44
-52.81549326231356
 45
-2.245064030267287
 46
2.245064030267287
 79
     0
 47
0.047280946967795
 98
        6
 10
8.745198642272271
 20
59.48245436501441
 10
12.95732131155819
 20
58.67867800748536
 10
25.68834529739388
 20
57.92218315960599
 10
25.97230858161788
 20
47.42581243079462
 10
23.65327478380686
 20
47.28396986111204
 10
9.360451804796641
 20
45.44001302652179
  0
LINE
  5
9062
102
{ACAD_REACTORS
330
9061
102
}
330
905E
100
AcDbEntity
  8
中心線
 48
0.15
100
AcDbLine
 10
9.874137960209452
 20
61.44065998839206
 30
0.0
 11
9.874137960209452
 21
43.44065998839204
 31
0.0
  0
LINE
  5
9063
102
{ACAD_REACTORS
330
9061
102
}
330
905E
100
AcDbEntity
  8
本体外線
100
AcDbLine
 10
20.8741379602094
 20
49.44065998839207
 30
0.0
 11
23.87413796020934
 21
47.94065998839211
 31
0.0
  0
LINE
  5
9064
102
{ACAD_REACTORS
330
9061
102
}
330
905E
100
AcDbEntity
  8
本体外線
100
AcDbLine
 10
18.87413796020939
 20
49.44065998839197
 30
0.0
 11
12.29350229108234
 21
46.67791964767736
 31
0.0
  0
LINE
  5
9065
102
{ACAD_REACTORS
330
9061
102
}
330
905E
100
AcDbEntity
  8
本体外線
100
AcDbLine
 10
27.8741379602094
 20
57.92358803825735
 30
0.0
 11
27.8741379602094
 21
46.95773193852672
 31
0.0
  0
LINE
  5
9066
102
{ACAD_REACTORS
330
9061
102
}
330
905E
100
AcDbEntity
  8
中心線
 48
0.15
100
AcDbLine
 10
24.87413796020935
 20
59.69065998839205
 30
0.0
 11
24.87413796020935
 21
45.19065998839205
 31
0.0
  0
LINE
  5
9067
330
905E
100
AcDbEntity
  8
本体外線
100
AcDbLine
 10
23.87413796020934
 20
56.94065998839203
 30
0.0
 11
23.87413796020934
 21
47.94065998839211
 31
0.0
  0
LINE
  5
9068
330
905E
100
AcDbEntity
  8
本体外線
100
AcDbLine
 10
8.17413796020935
 20
58.45501780947316
 30
0.0
 11
8.17413796020935
 21
46.42630216731088
 31
0.0
  0
LINE
  5
9069
102
{ACAD_REACTORS
330
9061
102
}
330
905E
100
AcDbEntity
  8
本体外線
100
AcDbLine
 10
7.374137960209394
 20
59.4406599883921
 30
0.0
 11
7.374137960209394
 21
45.44065998839204
 31
0.0
  0
DIMENSION
  5
906A
330
905E
100
AcDbEntity
  8
標註線
100
AcDbDimension
  2
*D13
 10
3.440986604598321
 20
46.42630216731086
 30
0.0
 11
3.440986604598321
 21
50.27630216731086
 31
0.0
 12
-33.71660629254677
 22
-52.81549326231356
 32
0.0
 70
   128
  1
%%c<>
 71
     5
 42
-1.0
  3
ISO-25
100
AcDbAlignedDimension
 13
7.374137960209394
 23
58.45501780947313
 33
0.0
 14
7.374137960209394
 24
46.42630216731086
 34
0.0
 50
90.0
100
AcDbRotatedDimension
1001
ACAD
1000
DSTYLE
1002
{
1070
    41
1040
1.5
1070
   140
1040
1.5
1002
}
  0
DIMENSION
  5
906B
330
905E
100
AcDbEntity
  8
標註線
100
AcDbDimension
  2
*D15
 10
35.40097914914476
 20
47.94065998839204
 30
0.0
 11
35.40097914914476
 21
52.76284422328271
 31
0.0
 12
-394.1737978353984
 22
-52.81549326231356
 32
0.0
 70
   128
  1
%%c<>
 71
     5
 42
-1.0
  3
ISO-25
100
AcDbAlignedDimension
 13
27.8741379602094
 23
56.94065998839207
 33
0.0
 14
27.8741379602094
 24
47.94065998839204
 34
0.0
 50
90.0
100
AcDbRotatedDimension
1001
ACAD
1000
DSTYLE
1002
{
1070
    41
1040
1.5
1070
   140
1040
1.5
1002
}
  0
DIMENSION
  5
906C
330
905E
100
AcDbEntity
  8
標註線
100
AcDbDimension
  2
*D16
 10
8.361963364138091
 20
46.37635227926425
 30
0.0
 11
13.38593291425889
 21
66.5240900817464
 31
0.0
 12
-348.701207274756
 22
-52.81549326231356
 32
0.0
 70
   131
 71
     5
 42
-1.0
  3
ISO-25
100
AcDbDiametricDimension
 15
11.38631255628127
 25
58.5049676975213
 35
0.0
 40
0.0
1001
ACAD
1000
DSTYLE
1002
{
1070
    40
1040
1.0
1002
}
  0
LINE
  5
906D
102
{ACAD_REACTORS
330
9061
102
}
330
905E
100
AcDbEntity
  8
本体外線
100
AcDbLine
 10
18.87413796020951
 20
47.63831681031719
 30
0.0
 11
11.4976459061757
 21
44.65898245579568
 31
0.0
  0
ARC
  5
906E
102
{ACAD_REACTORS
330
9061
102
}
330
905E
100
AcDbEntity
  8
本体外線
100
AcDbCircle
 10
9.874137960209452
 20
52.440659988392
 30
0.0
 40
6.25
100
AcDbArc
 50
254.2166867709404
 51
292.7740667760214
  0
LINE
  5
906F
330
905E
100
AcDbEntity
  8
本体外線
100
AcDbLine
 10
18.87413796020951
 20
7.497739041456867
 30
0.0
 11
11.4976459061757
 21
4.518404686935356
 31
0.0
  0
LINE
  5
9070
330
905E
100
AcDbEntity
  8
本体外線
100
AcDbLine
 10
18.87413796020951
 20
17.10242539760648
 30
0.0
 11
11.4976459061757
 21
20.08175975212799
 31
0.0
  0
ARC
  5
9071
330
905E
100
AcDbEntity
  8
本体\U+5185線
  6
HIDDENX2
 48
0.1
100
AcDbCircle
 10
9.874137960209452
 20
12.30008221953169
 30
0.0
 40
6.25
100
AcDbArc
 50
254.2166867709404
 51
292.7740667760214
  0
ARC
  5
9072
330
905E
100
AcDbEntity
  8
本体\U+5185線
  6
HIDDENX2
 48
0.1
100
AcDbCircle
 10
9.874137960209452
 20
12.30008221953169
 30
0.0
 40
6.25
100
AcDbArc
 50
67.22593322397867
 51
105.7833132290596
  0
LINE
  5
9073
330
905E
100
AcDbEntity
  8
中心線
 48
0.15
100
AcDbLine
 10
6.674137960209463
 20
12.30008221953167
 30
0.0
 11
14.64034286165918
 21
12.30008221953172
 31
0.0
  0
DIMENSION
  5
9074
330
905E
100
AcDbEntity
  8
標註線
100
AcDbDimension
  2
*D17
 10
10.37413796020939
 20
24.70976401149514
 30
0.0
 11
8.874137960209393
 21
24.70976401149514
 31
0.0
 12
-394.6737978353984
 22
-52.81549326231356
 32
0.0
 70
   128
 71
     5
 42
-1.0
  3
ISO-25
100
AcDbAlignedDimension
 13
7.374137960209451
 23
19.30008221953179
 33
0.0
 14
10.37413796020939
 24
17.30008221953179
 34
0.0
100
AcDbRotatedDimension
1001
ACAD
1000
DSTYLE
1002
{
1070
    41
1040
1.5
1070
   140
1040
1.5
1002
}
  0
DIMENSION
  5
9075
330
905E
100
AcDbEntity
  8
標註線
100
AcDbDimension
  2
*D18
 10
10.37413796020939
 20
17.30008221953179
 30
0.0
 11
14.16935486417486
 21
27.12427795001324
 31
0.0
 12
-349.2012072747562
 22
-52.81549326231356
 32
0.0
 70
   132
 71
     5
 42
-1.0
  3
ISO-25
100
AcDbRadialDimension
 15
11.45521308889431
 25
20.09852402992184
 35
0.0
 40
0.0
1001
ACAD
1000
DSTYLE
1002
{
1070
    40
1040
1.0
1070
   287
1070
     4
1002
}
  0
DIMENSION
  5
9076
330
905E
100
AcDbEntity
  8
標註線
100
AcDbDimension
  2
*D19
 10
7.374137960209394
 20
30.43867519147759
 30
0.0
 11
13.12413796020945
 21
31.68867519147759
 31
0.0
 12
-394.1737978353984
 22
-52.81549326231356
 32
0.0
 71
     5
 42
-1.0
  3
ISO-25
100
AcDbAlignedDimension
 13
18.87413796020951
 23
17.10242539760648
 33
0.0
 14
7.374137960209394
 24
19.30008221953179
 34
0.0
100
AcDbRotatedDimension
1001
ACAD
1000
DSTYLE
1002
{
1070
    40
1040
1.0
1002
}
  0
DIMENSION
  5
9077
330
905E
100
AcDbEntity
  8
標註線
100
AcDbDimension
  2
*D23
 10
27.8741379602094
 20
39.29971484413724
 30
0.0
 11
17.62413796020939
 21
40.54971484413724
 31
0.0
 12
-394.1737978353984
 22
-52.81549326231356
 32
0.0
 71
     5
 42
-1.0
  3
ISO-25
100
AcDbAlignedDimension
 13
7.374137960209394
 23
45.44065998839204
 33
0.0
 14
27.8741379602094
 24
46.95773193852672
 34
0.0
100
AcDbRotatedDimension
1001
ACAD
1000
DSTYLE
1002
{
1070
    40
1040
1.0
1002
}
  0
DIMENSION
  5
9078
330
905E
100
AcDbEntity
  8
標註線
100
AcDbDimension
  2
*D24
 10
9.874137960209452
 20
42.86180188711031
 30
0.0
 11
17.37413796020939
 21
44.11180188711031
 31
0.0
 12
-394.1737978353984
 22
-52.81549326231356
 32
0.0
 71
     5
 42
-1.0
  3
ISO-25
100
AcDbAlignedDimension
 13
24.87413796020935
 23
45.19065998839205
 33
0.0
 14
9.874137960209452
 24
43.44065998839204
 34
0.0
100
AcDbRotatedDimension
1001
ACAD
1000
DSTYLE
1002
{
1070
    40
1040
1.0
1002
}
  0
LINE
  5
9079
330
905E
100
AcDbEntity
  8
中心線
 48
0.15
100
AcDbLine
 10
9.874137960209452
 20
21.30008221953173
 30
0.0
 11
9.874137960209452
 21
3.300082219531731
 31
0.0
  0
LINE
  5
907A
330
905E
100
AcDbEntity
  8
本体外線
100
AcDbLine
 10
7.374137960209394
 20
19.30008221953179
 30
0.0
 11
7.374137960209394
 21
5.300082219531731
 31
0.0
  0
LINE
  5
907B
330
905E
100
AcDbEntity
  8
本体\U+5185線
  6
HIDDENX2
 48
0.1
100
AcDbLine
 10
8.17413796020935
 20
18.31444004061284
 30
0.0
 11
8.17413796020935
 21
6.285724398450567
 31
0.0
  0
DIMENSION
  5
907C
330
905E
100
AcDbEntity
  8
標註線
100
AcDbDimension
  2
*D12
 10
2.100000081308166
 20
4.300082219531731
 30
0.0
 11
0.7500000813081443
 21
12.30008221953173
 31
0.0
 12
-349.2012072747562
 22
-52.81549326231356
 32
0.0
  1
%%c16
 71
     5
 42
-1.0
  3
ISO-25
100
AcDbAlignedDimension
 13
8.17413796020935
 23
20.30008221953173
 33
0.0
 14
8.17413796020935
 24
4.300082219531731
 34
0.0
 50
90.0
100
AcDbRotatedDimension
1001
ACAD
1000
DSTYLE
1002
{
1070
    41
1040
1.5
1070
   140
1040
1.5
1002
}
  0
LINE
  5
907D
330
905E
100
AcDbEntity
  8
本体\U+5185線
  6
HIDDENX2
 48
0.1
100
AcDbLine
 10
8.17413796020935
 20
6.285724398450567
 30
0.0
 11
7.374137960209394
 21
6.285724398450567
 31
0.0
  0
ARC
  5
907E
330
905E
100
AcDbEntity
  8
本体外線
100
AcDbCircle
 10
8.374137960209393
 20
5.300082219531731
 30
0.0
 40
1.0
100
AcDbArc
 50
180.0
 51
270.0
  0
ARC
  5
907F
330
905E
100
AcDbEntity
  8
本体外線
100
AcDbCircle
 10
10.37413796020939
 20
7.300082219531559
 30
0.0
 40
3.0
100
AcDbArc
 50
270.0
 51
291.9935768281676
  0
LINE
  5
9080
330
905E
100
AcDbEntity
  8
本体外線
100
AcDbLine
 10
8.374137960209393
 20
4.300082219531731
 30
0.0
 11
10.41224921954347
 21
4.300082219531731
 31
0.0
  0
ARC
  5
9081
330
905E
100
AcDbEntity
  8
本体外線
100
AcDbCircle
 10
10.37413796020939
 20
17.30008221953179
 30
0.0
 40
3.0
100
AcDbArc
 50
68.00642317183243
 51
90.0
  0
ARC
  5
9082
330
905E
100
AcDbEntity
  8
本体外線
100
AcDbCircle
 10
8.374137960209393
 20
19.30008221953179
 30
0.0
 40
1.0
100
AcDbArc
 50
89.99999999999856
 51
180.0
  0
LINE
  5
9083
330
905E
100
AcDbEntity
  8
本体\U+5185線
  6
HIDDENX2
 48
0.1
100
AcDbLine
 10
8.17413796020935
 20
18.31444004061284
 30
0.0
 11
7.374137960209394
 21
18.31444004061284
 31
0.0
  0
LINE
  5
9084
330
905E
100
AcDbEntity
  8
本体外線
100
AcDbLine
 10
8.374137960209393
 20
20.30008221953179
 30
0.0
 11
10.37413796020939
 21
20.30008221953179
 31
0.0
  0
ARC
  5
9085
102
{ACAD_REACTORS
330
9061
102
}
330
905E
100
AcDbEntity
  8
本体外線
100
AcDbCircle
 10
8.374137960209393
 20
45.44065998839204
 30
0.0
 40
1.0
100
AcDbArc
 50
180.0
 51
270.0
  0
LINE
  5
9086
102
{ACAD_REACTORS
330
9061
102
}
330
905E
100
AcDbEntity
  8
本体外線
100
AcDbLine
 10
8.17413796020935
 20
46.42630216731088
 30
0.0
 11
7.374137960209394
 21
46.42630216731088
 31
0.0
  0
LINE
  5
9087
102
{ACAD_REACTORS
330
9061
102
}
330
905E
100
AcDbEntity
  8
本体外線
100
AcDbLine
 10
8.374137960209393
 20
44.44065998839206
 30
0.0
 11
10.41224921954347
 21
44.44065998839206
 31
0.0
  0
ARC
  5
9088
102
{ACAD_REACTORS
330
9061
102
}
330
905E
100
AcDbEntity
  8
本体外線
100
AcDbCircle
 10
10.37413796020939
 20
47.44065998839189
 30
0.0
 40
3.0
100
AcDbArc
 50
270.0
 51
291.9935768281676
  0
DIMENSION
  5
9089
330
905E
100
AcDbEntity
  8
標註線
100
AcDbDimension
  2
*D20
 10
20.8741379602094
 20
30.43867519147759
 30
0.0
 11
19.87413796020939
 21
30.43867519147759
 31
0.0
 12
-394.1737978353984
 22
-52.81549326231356
 32
0.0
 70
   128
  1
(<>)
 71
     5
 42
-1.0
  3
ISO-25
100
AcDbAlignedDimension
 13
18.87413796020939
 23
17.13742011275612
 33
0.0
 14
20.8741379602094
 24
17.10242539760639
 34
0.0
100
AcDbRotatedDimension
1001
ACAD
1000
DSTYLE
1002
{
1070
    40
1040
1.0
1002
}
  0
DIMENSION
  5
908A
330
905E
100
AcDbEntity
  8
標註線
100
AcDbDimension
  2
*D21
 10
27.8741379602094
 20
30.43867519147759
 30
0.0
 11
24.37413796020934
 21
31.68867519147759
 31
0.0
 12
-394.1737978353984
 22
-52.81549326231356
 32
0.0
 71
     5
 42
-1.0
  3
ISO-25
100
AcDbAlignedDimension
 13
20.87413796020928
 23
17.13742011275612
 33
0.0
 14
27.8741379602094
 24
17.78301026939704
 34
0.0
100
AcDbRotatedDimension
1001
ACAD
1000
DSTYLE
1002
{
1070
    40
1040
1.0
1002
}
  0
LINE
  5
908B
330
905E
100
AcDbEntity
  8
中心線
 48
0.15
100
AcDbLine
 10
17.72564700980524
 20
12.30008221953173
 30
0.0
 11
29.47413796020936
 21
12.30008221953179
 31
0.0
  0
LINE
  5
908C
330
905E
100
AcDbEntity
  8
中心線
 48
0.15
100
AcDbLine
 10
24.87413796020935
 20
19.55008221953173
 30
0.0
 11
24.87413796020935
 21
5.050082219531731
 31
0.0
  0
LINE
  5
908D
330
905E
100
AcDbEntity
  8
本体外線
100
AcDbLine
 10
27.8741379602094
 20
17.78301026939704
 30
0.0
 11
27.8741379602094
 21
6.817154169666415
 31
0.0
  0
LINE
  5
908E
330
905E
100
AcDbEntity
  8
本体\U+5185線
  6
HIDDENX2
 48
0.1
100
AcDbLine
 10
23.87413796020934
 20
16.8000822195317
 30
0.0
 11
23.87413796020934
 21
7.800082219531765
 31
0.0
  0
LINE
  5
908F
330
905E
100
AcDbEntity
  8
本体外線
100
AcDbLine
 10
20.8741379602094
 20
17.10242539760641
 30
0.0
 11
20.8741379602094
 21
7.497739041457058
 31
0.0
  0
LINE
  5
9090
330
905E
100
AcDbEntity
  8
本体外線
100
AcDbLine
 10
18.87413796020939
 20
17.10242539760647
 30
0.0
 11
18.87413796020945
 21
7.497739041457016
 31
0.0
  0
DIMENSION
  5
9091
330
905E
100
AcDbEntity
  8
標註線
100
AcDbDimension
  2
*D22
 10
17.28824261190306
 20
17.10242539760648
 30
0.0
 11
15.93824261190303
 21
12.30008221953174
 31
0.0
 12
-394.1737978353984
 22
-52.81549326231356
 32
0.0
  1
%%c<>
 71
     5
 42
-1.0
  3
ISO-25
100
AcDbAlignedDimension
 13
18.87413796020945
 23
7.497739041457016
 33
0.0
 14
18.87413796020951
 24
17.10242539760648
 34
0.0
 50
90.0
100
AcDbRotatedDimension
1001
ACAD
1000
DSTYLE
1002
{
1070
    41
1040
1.5
1070
   140
1040
1.5
1002
}
  0
LINE
  5
9092
330
905E
100
AcDbEntity
  8
本体\U+5185線
  6
HIDDENX2
 48
0.1
100
AcDbLine
 10
18.87413796020939
 20
9.300082219531738
 30
0.0
 11
20.8741379602094
 21
9.300082219531745
 31
0.0
  0
LINE
  5
9093
330
905E
100
AcDbEntity
  8
本体外線
100
AcDbLine
 10
20.8741379602094
 20
7.497739041457066
 30
0.0
 11
18.87413796020951
 21
7.497739041457009
 31
0.0
  0
LINE
  5
9094
330
905E
100
AcDbEntity
  8
本体\U+5185線
  6
HIDDENX2
 48
0.1
100
AcDbLine
 10
18.87413796020939
 20
9.300082219531644
 30
0.0
 11
12.29350229108234
 21
6.537341878817044
 31
0.0
  0
LINE
  5
9095
330
905E
100
AcDbEntity
  8
本体\U+5185線
  6
HIDDENX2
 48
0.1
100
AcDbLine
 10
20.8741379602094
 20
9.300082219531745
 30
0.0
 11
23.87413796020934
 21
7.800082219531765
 31
0.0
  0
LINE
  5
9096
330
905E
100
AcDbEntity
  8
本体\U+5185線
  6
HIDDENX2
 48
0.1
100
AcDbLine
 10
23.87413796020934
 20
7.800082219531765
 30
0.0
 11
27.8741379602094
 21
7.800082219531708
 31
0.0
  0
ARC
  5
9097
330
905E
100
AcDbEntity
  8
本体外線
100
AcDbCircle
 10
24.87413796020935
 20
12.30008221953173
 30
0.0
 40
6.25
100
AcDbArc
 50
230.2081805004434
 51
298.6854020141192
  0
POINT
  5
9098
330
905E
100
AcDbEntity
  8
Defpoints
  6
ByBlock
 62
     0
100
AcDbPoint
 10
24.87413796020935
 20
6.550082219531731
 30
0.0
  0
LINE
  5
9099
330
905E
100
AcDbEntity
  8
本体外線
100
AcDbLine
 10
20.8741379602094
 20
17.10242539760642
 30
0.0
 11
18.87413796020951
 21
17.10242539760648
 31
0.0
  0
LINE
  5
909A
330
905E
100
AcDbEntity
  8
本体\U+5185線
  6
HIDDENX2
 48
0.1
100
AcDbLine
 10
18.87413796020939
 20
15.30008221953173
 30
0.0
 11
20.8741379602094
 21
15.30008221953174
 31
0.0
  0
LINE
  5
909B
330
905E
100
AcDbEntity
  8
本体\U+5185線
  6
HIDDENX2
 48
0.1
100
AcDbLine
 10
18.87413796020939
 20
15.30008221953173
 30
0.0
 11
12.29350229108234
 21
18.06282256024633
 31
0.0
  0
LINE
  5
909C
330
905E
100
AcDbEntity
  8
本体\U+5185線
  6
HIDDENX2
 48
0.1
100
AcDbLine
 10
23.87413796020934
 20
16.8000822195317
 30
0.0
 11
27.8741379602094
 21
16.80008221953176
 31
0.0
  0
ARC
  5
909D
330
905E
100
AcDbEntity
  8
本体外線
100
AcDbCircle
 10
24.87413796020935
 20
12.30008221953173
 30
0.0
 40
6.25
100
AcDbArc
 50
61.31459798588082
 51
129.7918194995566
  0
LINE
  5
909E
330
905E
100
AcDbEntity
  8
本体\U+5185線
  6
HIDDENX2
 48
0.1
100
AcDbLine
 10
20.8741379602094
 20
15.30008221953174
 30
0.0
 11
23.87413796020934
 21
16.8000822195317
 31
0.0
  0
DIMENSION
  5
909F
330
905E
100
AcDbEntity
  8
標註線
100
AcDbDimension
  2
*D25
 10
27.8741379602094
 20
42.86180188711031
 30
0.0
 11
26.3741379602094
 21
42.86180188711031
 31
0.0
 12
-394.1737978353984
 22
-52.81549326231356
 32
0.0
 70
   128
 71
     5
 42
-1.0
  3
ISO-25
100
AcDbAlignedDimension
 13
24.87413796020935
 23
45.19065998839205
 33
0.0
 14
27.8741379602094
 24
46.95773193852672
 34
0.0
100
AcDbRotatedDimension
1001
ACAD
1000
DSTYLE
1002
{
1070
    40
1040
1.0
1002
}
  0
LINE
  5
90A0
102
{ACAD_REACTORS
330
9061
102
}
330
905E
100
AcDbEntity
  8
本体外線
100
AcDbLine
 10
20.8741379602094
 20
47.63831681031739
 30
0.0
 11
18.87413796020951
 21
47.63831681031732
 31
0.0
  0
ARC
  5
90A1
102
{ACAD_REACTORS
330
9061
102
}
330
905E
100
AcDbEntity
  8
本体外線
100
AcDbCircle
 10
24.87413796020935
 20
52.44065998839205
 30
0.0
 40
6.25
100
AcDbArc
 50
230.2081805004434
 51
298.6854020141192
  0
LINE
  5
90A2
102
{ACAD_REACTORS
330
9061
102
}
330
905E
100
AcDbEntity
  8
本体外線
100
AcDbLine
 10
23.87413796020934
 20
47.94065998839211
 30
0.0
 11
27.8741379602094
 21
47.94065998839204
 31
0.0
  0
POINT
  5
90A3
330
905E
100
AcDbEntity
  8
Defpoints
  6
ByBlock
 62
     0
100
AcDbPoint
 10
24.87413796020935
 20
46.69065998839204
 30
0.0
  0
LINE
  5
90A4
102
{ACAD_REACTORS
330
9061
102
}
330
905E
100
AcDbEntity
  8
本体外線
100
AcDbLine
 10
18.87413796020951
 20
57.24300316646679
 30
0.0
 11
11.4976459061757
 21
60.22233752098832
 31
0.0
  0
ARC
  5
90A5
102
{ACAD_REACTORS
330
9061
102
}
330
905E
100
AcDbEntity
  8
本体外線
100
AcDbCircle
 10
9.874137960209452
 20
52.440659988392
 30
0.0
 40
6.25
100
AcDbArc
 50
67.22593322397867
 51
105.7833132290596
  0
MTEXT
  5
90A6
330
905E
100
AcDbEntity
  8
公差
100
AcDbMText
 10
13.15879007501507
 20
70.11431847718028
 30
0.0
 40
1.0
 41
0.0
 71
     5
 72
     1
  1
  -0.2\P   -0.25
 11
0.2089098564672138
 21
0.9779349016528902
 31
0.0
 73
     1
 44
1.0
1001
ACAD
1000
MTEXTBEGIN
1070
    73
1070
     1
1070
    44
1040
1.0
1070
    74
1070
     0
1000
MTEXTEND
  0
LINE
  5
90A7
330
905E
100
AcDbEntity
  8
中心線
  6
CENTER
 48
0.15
100
AcDbLine
 10
6.774137960209542
 20
52.44065998839206
 30
0.0
 11
29.47413796020936
 21
52.44065998839206
 31
0.0
  0
DIMENSION
  5
90A8
330
905E
100
AcDbEntity
  8
本体外線
100
AcDbDimension
  2
*D11
 10
7.374137960209394
 20
64.283181267091
 30
0.0
 11
3.182471293542731
 21
65.533181267091
 31
0.0
 12
-394.1737978353984
 22
-52.81549326231356
 32
0.0
 71
     5
 42
-1.0
  3
ISO-25
100
AcDbAlignedDimension
 13
8.17413796020935
 23
58.45501780947313
 33
0.0
 14
7.374137960209394
 24
59.4406599883921
 34
0.0
100
AcDbRotatedDimension
1001
ACAD
1000
DSTYLE
1002
{
1070
    40
1040
1.0
1002
}
  0
MTEXT
  5
90A9
330
905E
100
AcDbEntity
  8
公差
100
AcDbMText
 10
1.83413408249116
 20
53.37245059015403
 30
0.0
 40
1.0
 41
0.0
 71
     5
 72
     1
  1
   -0.23\P   -0.37
 11
0.0000000000000001
 21
1.0
 31
0.0
 73
     1
 44
1.0
1001
ACAD
1000
MTEXTBEGIN
1070
    73
1070
     1
1070
    44
1040
1.0
1070
    74
1070
     0
1000
MTEXTEND
  0
LINE
  5
90AA
102
{ACAD_REACTORS
330
9061
102
}
330
905E
100
AcDbEntity
  8
本体外線
100
AcDbLine
 10
8.17413796020935
 20
58.45501780947316
 30
0.0
 11
7.374137960209394
 21
58.45501780947316
 31
0.0
  0
ARC
  5
90AB
102
{ACAD_REACTORS
330
9061
102
}
330
905E
100
AcDbEntity
  8
本体外線
100
AcDbCircle
 10
8.374137960209393
 20
59.4406599883921
 30
0.0
 40
1.0
100
AcDbArc
 50
89.99999999999856
 51
180.0
  0
LINE
  5
90AC
102
{ACAD_REACTORS
330
9061
102
}
330
905E
100
AcDbEntity
  8
本体外線
100
AcDbLine
 10
8.374137960209393
 20
60.44065998839212
 30
0.0
 11
10.37413796020939
 21
60.44065998839212
 31
0.0
  0
ARC
  5
90AD
102
{ACAD_REACTORS
330
9061
102
}
330
905E
100
AcDbEntity
  8
本体外線
100
AcDbCircle
 10
10.37413796020939
 20
57.44065998839211
 30
0.0
 40
3.0
100
AcDbArc
 50
68.00642317183243
 51
90.0
  0
MTEXT
  5
90AE
330
905E
100
AcDbEntity
  8
公差
100
AcDbMText
 10
32.61450466701428
 20
72.12128263461025
 30
0.0
 40
1.0
 41
0.0
 71
     5
 72
     1
  1
  +0.05\P-0
 11
0.469471562785891
 21
0.8829475928589268
 31
0.0
 73
     1
 44
1.0
1001
ACAD
1000
MTEXTBEGIN
1070
    73
1070
     1
1070
    44
1040
1.0
1070
    74
1070
     0
1000
MTEXTEND
  0
DIMENSION
  5
90AF
330
905E
100
AcDbEntity
  8
標註線
100
AcDbDimension
  2
*D29
 10
27.87413796020934
 20
64.283181267091
 30
0.0
 11
25.8741379602094
 21
64.283181267091
 31
0.0
 12
-394.1737978353984
 22
-52.81549326231356
 32
0.0
 70
   128
 71
     5
 42
-1.0
  3
ISO-25
100
AcDbAlignedDimension
 13
23.8741379602094
 23
56.94065998839199
 33
0.0
 14
27.87413796020934
 24
57.92358803825735
 34
0.0
100
AcDbRotatedDimension
1001
ACAD
1000
DSTYLE
1002
{
1070
    41
1040
1.5
1070
   140
1040
1.5
1002
}
  0
DIMENSION
  5
90B0
330
905E
100
AcDbEntity
  8
標註線
100
AcDbDimension
  2
*D26
 10
32.2800759358064
 20
49.44065998839203
 30
0.0
 11
32.2800759358064
 21
52.440659988392
 31
0.0
 12
-394.1737978353984
 22
-52.81549326231356
 32
0.0
 70
   128
  1
%%c<>
 71
     5
 42
-1.0
  3
ISO-25
100
AcDbAlignedDimension
 13
20.8741379602094
 23
55.44065998839203
 33
0.0
 14
20.8741379602094
 24
49.44065998839203
 34
0.0
 50
90.0
100
AcDbRotatedDimension
1001
ACAD
1000
DSTYLE
1002
{
1070
    41
1040
1.5
1070
   140
1040
1.5
1002
}
  0
DIMENSION
  5
90B1
330
905E
100
AcDbEntity
  8
標註線
100
AcDbDimension
  2
*D27
 10
18.87413796020939
 20
64.283181267091
 30
0.0
 11
19.87413796020939
 21
64.283181267091
 31
0.0
 12
-394.1737978353984
 22
-52.81549326231356
 32
0.0
 70
   128
 71
     5
 42
-1.0
  3
ISO-25
100
AcDbAlignedDimension
 13
20.8741379602094
 23
55.44065998839203
 33
0.0
 14
18.87413796020939
 24
55.44065998839204
 34
0.0
100
AcDbRotatedDimension
1001
ACAD
1000
DSTYLE
1002
{
1070
    40
1040
1.0
1002
}
  0
DIMENSION
  5
90B2
330
905E
100
AcDbEntity
  8
標註線
100
AcDbDimension
  2
*D28
 10
20.8741379602094
 20
64.283181267091
 30
0.0
 11
22.67413796020935
 21
64.283181267091
 31
0.0
 12
-394.1737978353984
 22
-52.81549326231356
 32
0.0
 70
   128
 71
     5
 42
-1.0
  3
ISO-25
100
AcDbAlignedDimension
 13
23.87413796020934
 23
56.94065998839203
 33
0.0
 14
20.8741379602094
 24
55.44065998839203
 34
0.0
100
AcDbRotatedDimension
1001
ACAD
1000
DSTYLE
1002
{
1070
    40
1040
1.0
1070
   173
1070
     1
1070
     7
1000
_DOTSMALL
1002
}
  0
LINE
  5
90B3
102
{ACAD_REACTORS
330
9061
102
}
330
905E
100
AcDbEntity
  8
本体外線
100
AcDbLine
 10
18.87413796020939
 20
55.44065998839204
 30
0.0
 11
20.8741379602094
 21
55.44065998839206
 31
0.0
  0
LINE
  5
90B4
102
{ACAD_REACTORS
330
9061
102
}
330
905E
100
AcDbEntity
  8
本体外線
100
AcDbLine
 10
20.8741379602094
 20
57.24300316646675
 30
0.0
 11
18.87413796020951
 21
57.24300316646679
 31
0.0
  0
LINE
  5
90B5
102
{ACAD_REACTORS
330
9061
102
}
330
905E
100
AcDbEntity
  8
本体外線
100
AcDbLine
 10
18.87413796020939
 20
49.44065998839207
 30
0.0
 11
20.8741379602094
 21
49.44065998839207
 31
0.0
  0
LINE
  5
90B6
330
905E
100
AcDbEntity
  8
本体外線
100
AcDbLine
 10
18.87413796020939
 20
55.44065998839204
 30
0.0
 11
18.87413796020934
 21
49.44065998839207
 31
0.0
  0
LINE
  5
90B7
102
{ACAD_REACTORS
330
9061
102
}
330
905E
100
AcDbEntity
  8
本体外線
100
AcDbLine
 10
18.87413796020939
 20
55.44065998839204
 30
0.0
 11
12.29350229108234
 21
58.20340032910666
 31
0.0
  0
LINE
  5
90B8
330
905E
100
AcDbEntity
  8
本体外線
100
AcDbLine
 10
20.8741379602094
 20
55.44065998839203
 30
0.0
 11
20.87413796020934
 21
49.44065998839203
 31
0.0
  0
ARC
  5
90B9
102
{ACAD_REACTORS
330
9061
102
}
330
905E
100
AcDbEntity
  8
本体外線
100
AcDbCircle
 10
24.87413796020935
 20
52.44065998839205
 30
0.0
 40
6.25
100
AcDbArc
 50
61.31459798588082
 51
129.7918194995566
  0
LINE
  5
90BA
102
{ACAD_REACTORS
330
9061
102
}
330
905E
100
AcDbEntity
  8
本体外線
100
AcDbLine
 10
23.87413796020934
 20
56.94065998839203
 30
0.0
 11
27.8741379602094
 21
56.94065998839207
 31
0.0
  0
LINE
  5
90BB
102
{ACAD_REACTORS
330
9061
102
}
330
905E
100
AcDbEntity
  8
本体外線
100
AcDbLine
 10
20.8741379602094
 20
55.44065998839206
 30
0.0
 11
23.87413796020934
 21
56.94065998839203
 31
0.0
  0
ENDBLK
  5
90BD
330
905E
100
AcDbEntity
  8
0
100
AcDbBlockEnd
  0
BLOCK
  5
96BD
330
960C
100
AcDbEntity
  8
0
100
AcDbBlockBegin
  2
*D32
 70
     1
 10
0.0
 20
0.0
 30
0.0
  3
*D32
  1

  0
LINE
  5
9A9F
330
960C
100
AcDbEntity
  8
0
 62
     6
370
    -2
100
AcDbLine
 10
22.0987546956557
 20
86.04892126127328
 30
0.0
 11
18.09987554619179
 21
86.04892126127328
 31
0.0
  0
LINE
  5
9AA0
330
960C
100
AcDbEntity
  8
0
 62
     6
370
    -2
100
AcDbLine
 10
22.09875469565559
 20
92.34892126127276
 30
0.0
 11
18.0998755461918
 21
92.34892126127276
 31
0.0
  0
LINE
  5
9AA1
330
960C
100
AcDbEntity
  8
0
 62
     6
370
    -2
100
AcDbLine
 10
18.59987554619179
 20
87.04892126127328
 30
0.0
 11
18.5998755461918
 21
91.34892126127276
 31
0.0
  0
MTEXT
  5
9AA2
330
960C
100
AcDbEntity
  8
0
 62
     3
100
AcDbMText
 10
16.58047769312978
 20
89.24180846122077
 30
0.0
 40
1.8
 41
0.0
 71
     5
 72
     1
  1
%%C6.3
 11
0.0000000000000001
 21
1.0
 31
0.0
 73
     1
 44
1.0
1001
ACAD
1000
MTEXTBEGIN
1070
    73
1070
     1
1070
    44
1040
1.0
1070
    74
1070
     0
1000
MTEXTEND
  0
INSERT
  5
9AA3
330
960C
100
AcDbEntity
  8
0
 62
     6
370
    -2
100
AcDbBlockReference
  2
_Open30
 10
18.59987554619179
 20
86.04892126127328
 30
0.0
 50
270.0
  0
INSERT
  5
9AA4
330
960C
100
AcDbEntity
  8
0
 62
     6
370
    -2
100
AcDbBlockReference
  2
_Open30
 10
18.5998755461918
 20
92.34892126127276
 30
0.0
 50
90.0
  0
POINT
  5
9AA5
330
960C
100
AcDbEntity
  8
Defpoints
 62
     0
100
AcDbPoint
 10
22.7237546956557
 20
86.04892126127328
 30
0.0
  0
POINT
  5
9AA6
330
960C
100
AcDbEntity
  8
Defpoints
 62
     0
100
AcDbPoint
 10
22.72375469565559
 20
92.34892126127276
 30
0.0
  0
POINT
  5
9AA7
330
960C
100
AcDbEntity
  8
Defpoints
 62
     0
100
AcDbPoint
 10
18.5998755461918
 20
92.34892126127276
 30
0.0
  0
ENDBLK
  5
96C7
330
960C
100
AcDbEntity
  8
0
100
AcDbBlockEnd
  0
BLOCK
  5
96E3
330
96CA
100
AcDbEntity
  8
0
100
AcDbBlockBegin
  2
A$C686D2C8F
 70
     0
 10
0.0
 20
0.0
 30
0.0
  3
A$C686D2C8F
  1

  0
LINE
  5
96CB
330
96CA
100
AcDbEntity
  8
-
 62
     9
370
    30
100
AcDbLine
 10
8.680515911958877
 20
0.0000001637025662
 30
0.0
 11
8.680515911958877
 21
21.79391972595493
 31
0.0
  0
MTEXT
  5
96CC
330
96CA
100
AcDbEntity
  8
文字
 62
     7
 48
2.0
370
    25
100
AcDbMText
 10
4.357746690090492
 20
1.534879918551889
 30
0.0
 40
1.056
 41
0.0
 71
     5
 72
     1
  1
\Ftxt.shx,bigfont.shx|c128;1000-2000
 73
     1
 44
1.0
1001
ACAD
1000
MTEXTBEGIN
1070
    73
1070
     1
1070
    44
1040
1.0
1070
    74
1070
     0
1000
MTEXTEND
  0
LINE
  5
96CD
330
96CA
100
AcDbEntity
  8
-
 62
     9
370
    30
100
AcDbLine
 10
14.07596153864995
 20
6.168919725954992
 30
0.0
 11
-0.0000002708226248
 21
6.168919725954992
 31
0.0
  0
LINE
  5
96CE
330
96CA
100
AcDbEntity
  8
-
 62
     9
370
    30
100
AcDbLine
 10
14.07596153864995
 20
3.043919725954991
 30
0.0
 11
-0.0000002708226248
 21
3.043919725954991
 31
0.0
  0
MTEXT
  5
96CF
330
96CA
100
AcDbEntity
  8
文字
 62
     7
 48
2.0
370
    25
100
AcDbMText
 10
4.583885678510454
 20
7.766488520632659
 30
0.0
 40
1.056
 41
0.0
 71
     5
 72
     1
  1
\Ftxt.shx,bigfont.shx|c128;120-400
 73
     1
 44
1.0
1001
ACAD
1000
MTEXTBEGIN
1070
    73
1070
     1
1070
    44
1040
1.0
1070
    74
1070
     0
1000
MTEXTEND
  0
MTEXT
  5
96D0
330
96CA
100
AcDbEntity
  8
文字
 62
     7
 48
2.0
370
    25
100
AcDbMText
 10
4.357746690090492
 20
4.659879918551889
 30
0.0
 40
1.056
 41
0.0
 71
     5
 72
     1
  1
\Ftxt.shx,bigfont.shx|c128;400-1000
 73
     1
 44
1.0
1001
ACAD
1000
MTEXTBEGIN
1070
    73
1070
     1
1070
    44
1040
1.0
1070
    74
1070
     0
1000
MTEXTEND
  0
MTEXT
  5
96D1
330
96CA
100
AcDbEntity
  8
文字
 62
     7
 48
2.0
370
    25
100
AcDbMText
 10
11.24560446782232
 20
1.493489286325878
 30
0.0
 40
1.056
 41
0.0
 71
     5
 72
     1
  1
\Ftxt.shx,bigfont.shx|c128;%%p1.2
 73
     1
 44
1.0
1001
ACAD
1000
MTEXTBEGIN
1070
    73
1070
     1
1070
    44
1040
1.0
1070
    74
1070
     0
1000
MTEXTEND
  0
MTEXT
  5
96D2
330
96CA
100
AcDbEntity
  8
文字
 62
     7
 48
2.0
370
    25
100
AcDbMText
 10
11.24560446782232
 20
7.672959860711952
 30
0.0
 40
1.056
 41
0.0
 71
     5
 72
     1
  1
\Ftxt.shx,bigfont.shx|c128;%%p0.5
 73
     1
 44
1.0
1001
ACAD
1000
MTEXTBEGIN
1070
    73
1070
     1
1070
    44
1040
1.0
1070
    74
1070
     0
1000
MTEXTEND
  0
MTEXT
  5
96D3
330
96CA
100
AcDbEntity
  8
文字
 62
     7
 48
2.0
370
    25
100
AcDbMText
 10
11.24560446782232
 20
4.618489286325877
 30
0.0
 40
1.056
 41
0.0
 71
     5
 72
     1
  1
\Ftxt.shx,bigfont.shx|c128;%%p0.8
 73
     1
 44
1.0
1001
ACAD
1000
MTEXTBEGIN
1070
    73
1070
     1
1070
    44
1040
1.0
1070
    74
1070
     0
1000
MTEXTEND
  0
LINE
  5
96D4
330
96CA
100
AcDbEntity
  8
-
 62
     9
370
    30
100
AcDbLine
 10
14.07596153864995
 20
21.79391972595494
 30
0.0
 11
-0.0000002708226248
 21
21.79391972595494
 31
0.0
  0
MTEXT
  5
96D5
102
{ACAD_XDICTIONARY
360
9FC8
102
}
330
96CA
100
AcDbEntity
  8
文字
 62
     7
 48
2.0
370
    25
100
AcDbMText
 10
4.071189820091944
 20
20.18541773705283
 30
0.0
 40
1.32
 41
0.0
 71
     5
 72
     1
  1
\Ftxt.shx,bigfont.shx|c128;\M+190A1     \M+19640
 73
     1
 44
1.0
1001
ACAD
1000
MTEXTBEGIN
1070
    73
1070
     1
1070
    44
1040
1.0
1070
    74
1070
     0
1000
MTEXTEND
  0
LINE
  5
96D6
330
96CA
100
AcDbEntity
  8
-
 62
     9
370
    30
100
AcDbLine
 10
14.07596153864995
 20
12.41891972595499
 30
0.0
 11
-0.0000002708226248
 21
12.41891972595499
 31
0.0
  0
LINE
  5
96D7
330
96CA
100
AcDbEntity
  8
-
 62
     9
370
    30
100
AcDbLine
 10
14.07596153864995
 20
9.293919725954992
 30
0.0
 11
-0.0000002708226248
 21
9.293919725954992
 31
0.0
  0
LINE
  5
96D8
330
96CA
100
AcDbEntity
  8
-
 62
     9
370
    30
100
AcDbLine
 10
14.07596153864995
 20
15.54391972595505
 30
0.0
 11
-0.0000002708226248
 21
15.54391972595505
 31
0.0
  0
LINE
  5
96D9
330
96CA
100
AcDbEntity
  8
-
 62
     9
370
    30
100
AcDbLine
 10
14.07596153864995
 20
18.66891972595499
 30
0.0
 11
-0.0000002708226248
 21
18.66891972595499
 31
0.0
  0
MTEXT
  5
96DA
330
96CA
100
AcDbEntity
  8
文字
 62
     7
 48
2.0
370
    25
100
AcDbMText
 10
5.553054532570853
 20
14.05949565806122
 30
0.0
 40
1.187999999999999
 41
0.0
 71
     5
 72
     1
  1
\Ftxt.shx,bigfont.shx|c128;6-30
 73
     1
 44
1.0
1001
ACAD
1000
MTEXTBEGIN
1070
    73
1070
     1
1070
    44
1040
1.0
1070
    74
1070
     0
1000
MTEXTEND
  0
MTEXT
  5
96DB
330
96CA
100
AcDbEntity
  8
文字
 62
     7
 48
2.0
370
    25
100
AcDbMText
 10
4.777719638950542
 20
10.83576401983049
 30
0.0
 40
1.187999999999999
 41
0.0
 71
     5
 72
     1
  1
\Ftxt.shx,bigfont.shx|c128;30-120
 73
     1
 44
1.0
1001
ACAD
1000
MTEXTBEGIN
1070
    73
1070
     1
1070
    44
1040
1.0
1070
    74
1070
     0
1000
MTEXTEND
  0
MTEXT
  5
96DC
330
96CA
100
AcDbEntity
  8
文字
 62
     7
 48
2.0
370
    25
100
AcDbMText
 10
5.636355891666197
 20
17.03805601716294
 30
0.0
 40
1.187999999999999
 41
0.0
 71
     5
 72
     1
  1
\Ftxt.shx,bigfont.shx|c128;0.5-6
 73
     1
 44
1.0
1001
ACAD
1000
MTEXTBEGIN
1070
    73
1070
     1
1070
    44
1040
1.0
1070
    74
1070
     0
1000
MTEXTEND
  0
MTEXT
  5
96DD
330
96CA
100
AcDbEntity
  8
文字
 62
     7
 48
2.0
370
    25
100
AcDbMText
 10
11.17850128486782
 20
10.76979532070271
 30
0.0
 40
1.056
 41
0.0
 71
     5
 72
     1
  1
\Ftxt.shx,bigfont.shx|c128;%%p0.3
 73
     1
 44
1.0
1001
ACAD
1000
MTEXTBEGIN
1070
    73
1070
     1
1070
    44
1040
1.0
1070
    74
1070
     0
1000
MTEXTEND
  0
MTEXT
  5
96DE
330
96CA
100
AcDbEntity
  8
文字
 62
     7
 48
2.0
370
    25
100
AcDbMText
 10
11.28437403675696
 20
14.00157251408285
 30
0.0
 40
1.056
 41
0.0
 71
     5
 72
     1
  1
\Ftxt.shx,bigfont.shx|c128;%%p0.2
 73
     1
 44
1.0
1001
ACAD
1000
MTEXTBEGIN
1070
    73
1070
     1
1070
    44
1040
1.0
1070
    74
1070
     0
1000
MTEXTEND
  0
MTEXT
  5
96DF
102
{ACAD_XDICTIONARY
360
9FCA
102
}
330
96CA
100
AcDbEntity
  8
文字
 62
     7
 48
2.0
370
    25
100
AcDbMText
 10
11.27962388693174
 20
20.16725913840565
 30
0.0
 40
0.9503999999999999
 41
0.0
 71
     5
 72
     1
  1
\Ftxt.shx,bigfont.shx|c128;\M+19765\M+18B96\M+18CF6\M+18DB7
 73
     1
 44
1.0
1001
ACAD
1000
MTEXTBEGIN
1070
    73
1070
     1
1070
    44
1040
1.0
1070
    74
1070
     0
1000
MTEXTEND
  0
MTEXT
  5
96E0
330
96CA
100
AcDbEntity
  8
文字
 62
     7
 48
2.0
370
    25
100
AcDbMText
 10
11.49190853903963
 20
17.07980129416199
 30
0.0
 40
1.056
 41
0.0
 71
     5
 72
     1
  1
\Ftxt.shx,bigfont.shx|c128;%%p0.1
 73
     1
 44
1.0
1001
ACAD
1000
MTEXTBEGIN
1070
    73
1070
     1
1070
    44
1040
1.0
1070
    74
1070
     0
1000
MTEXTEND
  0
MTEXT
  5
96E1
102
{ACAD_XDICTIONARY
360
9FCC
102
}
330
96CA
100
AcDbEntity
  8
文字
 62
     7
 48
2.0
370
    25
100
AcDbMText
 10
7.244210341711777
 20
22.4912497362534
 30
0.0
 40
0.9503999999999999
 41
0.0
 71
     5
 72
     1
  1
\Ftxt.shx,bigfont.shx|c128;JIS B 0405\M+18140(\M+19286\M+18B89)
 73
     1
 44
1.0
1001
ACAD
1000
MTEXTBEGIN
1070
    73
1070
     1
1070
    44
1040
1.0
1070
    74
1070
     0
1000
MTEXTEND
  0
MTEXT
  5
96E2
102
{ACAD_XDICTIONARY
360
9FCE
102
}
330
96CA
100
AcDbEntity
  8
文字
 62
     7
 48
2.0
370
    25
100
AcDbMText
 10
7.136776097852246
 20
23.95166109897628
 30
0.0
 40
1.25
 41
0.0
 71
     5
 72
     1
  1
\Ftxt.shx,bigfont.shx|c128;\M+188EA   \M+194CA   \M+18CF6   \M+18DB7
 73
     1
 44
1.0
1001
ACAD
1000
MTEXTBEGIN
1070
    73
1070
     1
1070
    44
1040
1.0
1070
    74
1070
     0
1000
MTEXTEND
  0
ENDBLK
  5
96E4
330
96CA
100
AcDbEntity
  8
0
100
AcDbBlockEnd
  0
BLOCK
  5
9728
330
9727
100
AcDbEntity
  8
0
100
AcDbBlockBegin
  2
*D34
 70
     1
 10
0.0
 20
0.0
 30
0.0
  3
*D34
  1

  0
LINE
  5
9AA8
330
9727
100
AcDbEntity
  8
本体外線
 62
     6
370
    -2
100
AcDbLine
 10
22.7237546956557
 20
84.04892126127341
 30
0.0
 11
22.7237546956557
 21
73.69241233497158
 31
0.0
  0
LINE
  5
9AA9
330
9727
100
AcDbEntity
  8
本体外線
 62
     6
370
    -2
100
AcDbLine
 10
45.80655955776411
 20
82.32392126127344
 30
0.0
 11
45.80655955776411
 21
73.69241233497158
 31
0.0
  0
LINE
  5
9AAA
330
9727
100
AcDbEntity
  8
本体外線
 62
     6
370
    -2
100
AcDbLine
 10
23.7237546956557
 20
74.19241233497158
 30
0.0
 11
44.80655955776412
 21
74.19241233497158
 31
0.0
  0
INSERT
  5
9AAB
330
9727
100
AcDbEntity
  8
本体外線
 62
     6
370
    -2
100
AcDbBlockReference
  2
_Open30
 10
22.7237546956557
 20
74.19241233497158
 30
0.0
 50
180.0
  0
INSERT
  5
9AAC
330
9727
100
AcDbEntity
  8
本体外線
 62
     6
370
    -2
100
AcDbBlockReference
  2
_Open30
 10
45.80655955776411
 20
74.19241233497158
 30
0.0
  0
MTEXT
  5
9AAD
330
9727
100
AcDbEntity
  8
本体外線
 62
     3
100
AcDbMText
 10
34.26515712670991
 20
75.59241233497158
 30
0.0
 40
1.8
 41
0.0
 71
     5
 72
     1
  1
23
 73
     1
 44
1.0
1001
ACAD
1000
MTEXTBEGIN
1070
    73
1070
     1
1070
    44
1040
1.0
1070
    74
1070
     0
1000
MTEXTEND
  0
POINT
  5
9AAE
330
9727
100
AcDbEntity
  8
Defpoints
 62
     0
100
AcDbPoint
 10
22.7237546956557
 20
84.67392126127341
 30
0.0
  0
POINT
  5
9AAF
330
9727
100
AcDbEntity
  8
Defpoints
 62
     0
100
AcDbPoint
 10
45.80655955776411
 20
82.94892126127344
 30
0.0
  0
POINT
  5
9AB0
330
9727
100
AcDbEntity
  8
Defpoints
 62
     0
100
AcDbPoint
 10
45.80655955776411
 20
74.19241233497158
 30
0.0
  0
ENDBLK
  5
9732
330
9727
100
AcDbEntity
  8
0
100
AcDbBlockEnd
  0
BLOCK
  5
98BC
330
98B8
100
AcDbEntity
  8
0
100
AcDbBlockBegin
  2
_Open30
 70
     0
 10
0.0
 20
0.0
 30
0.0
  3
_Open30
  1

  0
LINE
  5
98B9
330
98B8
100
AcDbEntity
  8
0
  6
ByBlock
 62
     0
370
    -2
100
AcDbLine
 10
-1.0
 20
0.26794919
 30
0.0
 11
0.0
 21
0.0
 31
0.0
  0
LINE
  5
98BA
330
98B8
100
AcDbEntity
  8
0
  6
ByBlock
 62
     0
370
    -2
100
AcDbLine
 10
0.0
 20
0.0
 30
0.0
 11
-1.0
 21
-0.26794919
 31
0.0
  0
LINE
  5
98BB
330
98B8
100
AcDbEntity
  8
0
  6
ByBlock
 62
     0
370
    -2
100
AcDbLine
 10
0.0
 20
0.0
 30
0.0
 11
-1.0
 21
0.0
 31
0.0
  0
ENDBLK
  5
98BD
330
98B8
100
AcDbEntity
  8
0
100
AcDbBlockEnd
  0
BLOCK
  5
9A76
330
9A74
100
AcDbEntity
  8
0
100
AcDbBlockBegin
  2
GENAXEH
 70
     0
 10
0.0
 20
0.0
 30
0.0
  3
GENAXEH
  1

  0
LINE
  5
9A75
330
9A74
100
AcDbEntity
  8
0
100
AcDbLine
 10
-1.0
 20
0.0
 30
0.0
 11
1.0
 21
0.0
 31
0.0
  0
ENDBLK
  5
9A77
330
9A74
100
AcDbEntity
  8
0
100
AcDbBlockEnd
  0
BLOCK
  5
9CFD
330
9CFC
100
AcDbEntity
  8
0
100
AcDbBlockBegin
  2
*D37
 70
     1
 10
0.0
 20
0.0
 30
0.0
  3
*D37
  1

  0
LINE
  5
9DD5
330
9CFC
100
AcDbEntity
  8
標註線
370
    -2
100
AcDbLine
 10
144.8065595577641
 20
81.34892126127343
 30
0.0
 11
144.8065595577641
 21
75.94646390641608
 31
0.0
  0
LINE
  5
9DD6
330
9CFC
100
AcDbEntity
  8
標註線
370
    -2
100
AcDbLine
 10
121.8265595577642
 20
84.59892126127341
 30
0.0
 11
121.8265595577642
 21
75.94646390641608
 31
0.0
  0
LINE
  5
9DD7
330
9CFC
100
AcDbEntity
  8
標註線
370
    -2
100
AcDbLine
 10
143.0565595577641
 20
76.54646390641608
 30
0.0
 11
123.5765595577642
 21
76.54646390641608
 31
0.0
  0
INSERT
  5
9DD8
330
9CFC
100
AcDbEntity
  8
標註線
370
    -2
100
AcDbBlockReference
  2
_Open30
 10
144.8065595577641
 20
76.54646390641608
 30
0.0
 41
1.75
 42
1.75
 43
1.75
  0
INSERT
  5
9DD9
330
9CFC
100
AcDbEntity
  8
標註線
370
    -2
100
AcDbBlockReference
  2
_Open30
 10
121.8265595577642
 20
76.54646390641608
 30
0.0
 41
1.75
 42
1.75
 43
1.75
 50
180.0
  0
MTEXT
  5
9DDA
330
9CFC
100
AcDbEntity
  8
標註線
 62
     3
100
AcDbMText
 10
133.3165595577641
 20
78.02146390641607
 30
0.0
 40
1.75
 41
0.0
 71
     5
 72
     1
  1
\A1;23
 73
     1
 44
1.0
1001
ACAD
1000
MTEXTBEGIN
1070
    73
1070
     1
1070
    44
1040
1.0
1070
    74
1070
     0
1000
MTEXTEND
  0
POINT
  5
9DDB
330
9CFC
100
AcDbEntity
  8
Defpoints
 62
     0
100
AcDbPoint
 10
144.8065595577641
 20
81.94892126127342
 30
0.0
  0
POINT
  5
9DDC
330
9CFC
100
AcDbEntity
  8
Defpoints
 62
     0
100
AcDbPoint
 10
121.8265595577642
 20
85.1989212612734
 30
0.0
  0
POINT
  5
9DDD
330
9CFC
100
AcDbEntity
  8
Defpoints
 62
     0
100
AcDbPoint
 10
121.8265595577642
 20
76.54646390641608
 30
0.0
  0
ENDBLK
  5
9CFE
330
9CFC
100
AcDbEntity
  8
0
100
AcDbBlockEnd
  0
BLOCK
  5
9D0A
330
9D09
100
AcDbEntity
  8
0
100
AcDbBlockBegin
  2
*D38
 70
     1
 10
0.0
 20
0.0
 30
0.0
  3
*D38
  1

  0
LINE
  5
9F2B
330
9D09
100
AcDbEntity
  8
標註線
370
    -2
100
AcDbLine
 10
121.8265595577642
 20
84.59892126127341
 30
0.0
 11
121.8265595577642
 21
68.40589256625245
 31
0.0
  0
LINE
  5
9F2C
330
9D09
100
AcDbEntity
  8
標註線
370
    -2
100
AcDbLine
 10
147.806559557764
 20
83.11599321140807
 30
0.0
 11
147.806559557764
 21
68.40589256625245
 31
0.0
  0
LINE
  5
9F2D
330
9D09
100
AcDbEntity
  8
標註線
370
    -2
100
AcDbLine
 10
123.5765595577642
 20
69.00589256625244
 30
0.0
 11
146.056559557764
 21
69.00589256625244
 31
0.0
  0
INSERT
  5
9F2E
330
9D09
100
AcDbEntity
  8
標註線
370
    -2
100
AcDbBlockReference
  2
_Open30
 10
121.8265595577642
 20
69.00589256625244
 30
0.0
 41
1.75
 42
1.75
 43
1.75
 50
180.0
  0
INSERT
  5
9F2F
330
9D09
100
AcDbEntity
  8
標註線
370
    -2
100
AcDbBlockReference
  2
_Open30
 10
147.806559557764
 20
69.00589256625244
 30
0.0
 41
1.75
 42
1.75
 43
1.75
  0
MTEXT
  5
9F30
330
9D09
100
AcDbEntity
  8
標註線
 62
     3
100
AcDbMText
 10
134.8165595577641
 20
70.48089256625243
 30
0.0
 40
1.75
 41
0.0
 71
     5
 72
     1
  1
\A1;26
 73
     1
 44
1.0
1001
ACAD
1000
MTEXTBEGIN
1070
    73
1070
     1
1070
    44
1040
1.0
1070
    74
1070
     0
1000
MTEXTEND
  0
POINT
  5
9F31
330
9D09
100
AcDbEntity
  8
Defpoints
 62
     0
100
AcDbPoint
 10
121.8265595577642
 20
85.1989212612734
 30
0.0
  0
POINT
  5
9F32
330
9D09
100
AcDbEntity
  8
Defpoints
 62
     0
100
AcDbPoint
 10
147.806559557764
 20
83.71599321140806
 30
0.0
  0
POINT
  5
9F33
330
9D09
100
AcDbEntity
  8
Defpoints
 62
     0
100
AcDbPoint
 10
147.806559557764
 20
69.00589256625244
 30
0.0
  0
ENDBLK
  5
9D0B
330
9D09
100
AcDbEntity
  8
0
100
AcDbBlockEnd
  0
BLOCK
  5
9DC5
330
9DC4
100
AcDbEntity
  8
0
100
AcDbBlockBegin
  2
*D39
 70
     1
 10
0.0
 20
0.0
 30
0.0
  3
*D39
  1

  0
LINE
  5
9DC7
330
9DC4
100
AcDbEntity
  8
標註線
370
    -2
100
AcDbLine
 10
170.4149428515792
 20
96.19892126127357
 30
0.0
 11
161.5929062976695
 21
96.19892126127357
 31
0.0
  0
LINE
  5
9DC8
330
9DC4
100
AcDbEntity
  8
標註線
370
    -2
100
AcDbLine
 10
170.4149428515792
 20
82.19892126127351
 30
0.0
 11
161.5929062976695
 21
82.19892126127351
 31
0.0
  0
LINE
  5
9DC9
330
9DC4
100
AcDbEntity
  8
標註線
370
    -2
100
AcDbLine
 10
162.1929062976695
 20
94.44892126127356
 30
0.0
 11
162.1929062976695
 21
83.9489212612735
 31
0.0
  0
INSERT
  5
9DCA
330
9DC4
100
AcDbEntity
  8
標註線
370
    -2
100
AcDbBlockReference
  2
_Open30
 10
162.1929062976695
 20
96.19892126127357
 30
0.0
 41
1.75
 42
1.75
 43
1.75
 50
90.0
  0
INSERT
  5
9DCB
330
9DC4
100
AcDbEntity
  8
標註線
370
    -2
100
AcDbBlockReference
  2
_Open30
 10
162.1929062976695
 20
82.19892126127351
 30
0.0
 41
1.75
 42
1.75
 43
1.75
 50
270.0
  0
MTEXT
  5
9DCC
330
9DC4
100
AcDbEntity
  8
標註線
 62
     3
100
AcDbMText
 10
160.7179062976695
 20
89.19892126127356
 30
0.0
 40
1.75
 41
0.0
 71
     5
 72
     1
  1
\A1;14
 11
0.0000000000000001
 21
1.0
 31
0.0
 73
     1
 44
1.0
1001
ACAD
1000
MTEXTBEGIN
1070
    73
1070
     1
1070
    44
1040
1.0
1070
    74
1070
     0
1000
MTEXTEND
  0
POINT
  5
9DCD
330
9DC4
100
AcDbEntity
  8
Defpoints
 62
     0
100
AcDbPoint
 10
171.0149428515792
 20
96.19892126127357
 30
0.0
  0
POINT
  5
9DCE
330
9DC4
100
AcDbEntity
  8
Defpoints
 62
     0
100
AcDbPoint
 10
171.0149428515792
 20
82.19892126127351
 30
0.0
  0
POINT
  5
9DCF
330
9DC4
100
AcDbEntity
  8
Defpoints
 62
     0
100
AcDbPoint
 10
162.1929062976695
 20
82.19892126127351
 30
0.0
  0
ENDBLK
  5
9DC6
330
9DC4
100
AcDbEntity
  8
0
100
AcDbBlockEnd
  0
BLOCK
  5
9EED
330
9EEC
100
AcDbEntity
  8
0
100
AcDbBlockBegin
  2
*D41
 70
     1
 10
0.0
 20
0.0
 30
0.0
  3
*D41
  1

  0
LINE
  5
9F3D
330
9EEC
100
AcDbEntity
  8
標註線
370
    -2
100
AcDbLine
 10
121.8265595577641
 20
93.79892126127339
 30
0.0
 11
121.8265595577641
 21
106.86196477199
 31
0.0
  0
LINE
  5
9F3E
330
9EEC
100
AcDbEntity
  8
標註線
370
    -2
100
AcDbLine
 10
144.8065595577641
 20
97.04892126127342
 30
0.0
 11
144.8065595577641
 21
106.86196477199
 31
0.0
  0
LINE
  5
9F3F
330
9EEC
100
AcDbEntity
  8
標註線
370
    -2
100
AcDbLine
 10
123.5765595577641
 20
106.26196477199
 30
0.0
 11
143.0565595577641
 21
106.26196477199
 31
0.0
  0
INSERT
  5
9F40
330
9EEC
100
AcDbEntity
  8
標註線
370
    -2
100
AcDbBlockReference
  2
_Open30
 10
121.8265595577641
 20
106.26196477199
 30
0.0
 41
1.75
 42
1.75
 43
1.75
 50
180.0
  0
INSERT
  5
9F41
330
9EEC
100
AcDbEntity
  8
標註線
370
    -2
100
AcDbBlockReference
  2
_Open30
 10
144.8065595577641
 20
106.26196477199
 30
0.0
 41
1.75
 42
1.75
 43
1.75
  0
MTEXT
  5
9F42
330
9EEC
100
AcDbEntity
  8
標註線
 62
     3
100
AcDbMText
 10
133.3165595577641
 20
107.73696477199
 30
0.0
 40
1.75
 41
0.0
 71
     5
 72
     1
  1
\A1;23
 73
     1
 44
1.0
1001
ACAD
1000
MTEXTBEGIN
1070
    73
1070
     1
1070
    44
1040
1.0
1070
    74
1070
     0
1000
MTEXTEND
  0
POINT
  5
9F43
330
9EEC
100
AcDbEntity
  8
Defpoints
 62
     0
100
AcDbPoint
 10
121.8265595577641
 20
93.1989212612734
 30
0.0
  0
POINT
  5
9F44
330
9EEC
100
AcDbEntity
  8
Defpoints
 62
     0
100
AcDbPoint
 10
144.8065595577641
 20
96.44892126127343
 30
0.0
  0
POINT
  5
9F45
330
9EEC
100
AcDbEntity
  8
Defpoints
 62
     0
100
AcDbPoint
 10
144.8065595577641
 20
106.26196477199
 30
0.0
  0
ENDBLK
  5
9EEE
330
9EEC
100
AcDbEntity
  8
0
100
AcDbBlockEnd
  0
BLOCK
  5
9F20
330
9F1F
100
AcDbEntity
  8
0
100
AcDbBlockBegin
  2
*D42
 70
     1
 10
0.0
 20
0.0
 30
0.0
  3
*D42
  1

  0
LINE
  5
9F22
330
9F1F
100
AcDbEntity
  8
標註線
370
    -2
100
AcDbLine
 10
132.3065595577641
 20
81.59892126127331
 30
0.0
 11
132.3065595577641
 21
75.75170001795672
 31
0.0
  0
LINE
  5
9F23
330
9F1F
100
AcDbEntity
  8
標註線
370
    -2
100
AcDbLine
 10
121.8265595577642
 20
84.59892126127341
 30
0.0
 11
121.8265595577642
 21
75.75170001795672
 31
0.0
  0
LINE
  5
9F24
330
9F1F
100
AcDbEntity
  8
標註線
370
    -2
100
AcDbLine
 10
130.5565595577641
 20
76.35170001795671
 30
0.0
 11
123.5765595577642
 21
76.35170001795671
 31
0.0
  0
INSERT
  5
9F25
330
9F1F
100
AcDbEntity
  8
標註線
370
    -2
100
AcDbBlockReference
  2
_Open30
 10
132.3065595577641
 20
76.35170001795671
 30
0.0
 41
1.75
 42
1.75
 43
1.75
  0
INSERT
  5
9F26
330
9F1F
100
AcDbEntity
  8
標註線
370
    -2
100
AcDbBlockReference
  2
_Open30
 10
121.8265595577642
 20
76.35170001795671
 30
0.0
 41
1.75
 42
1.75
 43
1.75
 50
180.0
  0
MTEXT
  5
9F27
330
9F1F
100
AcDbEntity
  8
標註線
 62
     3
100
AcDbMText
 10
127.0665595577642
 20
77.82670001795671
 30
0.0
 40
1.75
 41
0.0
 71
     5
 72
     1
  1
\A1;10.5
 73
     1
 44
1.0
1001
ACAD
1000
MTEXTBEGIN
1070
    73
1070
     1
1070
    44
1040
1.0
1070
    74
1070
     0
1000
MTEXTEND
  0
POINT
  5
9F28
330
9F1F
100
AcDbEntity
  8
Defpoints
 62
     0
100
AcDbPoint
 10
132.3065595577641
 20
82.19892126127332
 30
0.0
  0
POINT
  5
9F29
330
9F1F
100
AcDbEntity
  8
Defpoints
 62
     0
100
AcDbPoint
 10
121.8265595577642
 20
85.1989212612734
 30
0.0
  0
POINT
  5
9F2A
330
9F1F
100
AcDbEntity
  8
Defpoints
 62
     0
100
AcDbPoint
 10
121.8265595577642
 20
76.35170001795671
 30
0.0
  0
ENDBLK
  5
9F21
330
9F1F
100
AcDbEntity
  8
0
100
AcDbBlockEnd
  0
ENDSEC
  0
SECTION
  2
ENTITIES
  0
MTEXT
  5
F7
330
1F
100
AcDbEntity
  8
0
100
AcDbMText
 10
323.2292812435755
 20
90.6709867743587
 30
0.0
 40
2.0
 41
0.0
 71
     5
 72
     1
  1

 73
     1
 44
1.0
1001
ACAD
1000
MTEXTBEGIN
1070
    73
1070
     1
1070
    44
1040
1.0
1070
    74
1070
     0
1000
MTEXTEND
  0
LINE
  5
97DD
330
1F
100
AcDbEntity
  8
-
 62
     9
100
AcDbLine
 10
99.00000000000011
 20
144.9999999999999
 30
0.0
 11
99.00000000000011
 21
0.0
 31
0.0
  0
CIRCLE
  5
9BE1
330
1F
100
AcDbEntity
  8
本体外線
100
AcDbCircle
 10
175.0563947359066
 20
89.19892126127356
 30
0.0
 40
6.275
  0
LWPOLYLINE
  5
9BE2
330
1F
100
AcDbEntity
  8
本体外線
100
AcDbPolyline
 90
        6
 70
     1
 43
0.0
 10
171.0149428515792
 20
96.19892126127357
 10
166.9734909672518
 20
89.19892126127356
 10
171.0149428515792
 20
82.19892126127351
 10
179.0978466202339
 20
82.19892126127351
 10
183.1392985045614
 20
89.19892126127356
 10
179.0978466202339
 20
96.19892126127357
  0
LINE
  5
9BE3
330
1F
100
AcDbEntity
  8
中心線
  6
CENTER
 48
0.15
100
AcDbLine
 10
175.0563947359066
 20
98.18844846072781
 30
0.0
 11
175.0563947359066
 21
80.20939406181927
 31
0.0
  0
LINE
  5
9BEB
330
1F
100
AcDbEntity
  8
中心線
  6
CENTER
 48
0.15
100
AcDbLine
 10
166.0668675364522
 20
89.19892126127356
 30
0.0
 11
184.0459219353608
 21
89.19892126127356
 31
0.0
  0
CIRCLE
  5
9BF7
330
1F
100
AcDbEntity
  8
本体外線
100
AcDbCircle
 10
175.0563947359066
 20
89.19892126127356
 30
0.0
 40
5.5
  0
CIRCLE
  5
9BF8
330
1F
100
AcDbEntity
  8
本体外線
100
AcDbCircle
 10
175.0563947359066
 20
89.19892126127356
 30
0.0
 40
4.5
  0
TEXT
  5
9BFC
330
1F
100
AcDbEntity
  8
文字
 62
     3
100
AcDbText
 10
139.2911115118917
 20
90.3182093084986
 30
0.0
 40
1.3
  1
PT
 50
270.0
100
AcDbText
  0
CIRCLE
  5
9BFF
330
1F
100
AcDbEntity
  8
本体外線
100
AcDbCircle
 10
175.0563947359066
 20
89.19892126127356
 30
0.0
 40
3.149999999999999
  0
LINE
  5
9C01
330
1F
100
AcDbEntity
  8
-
 62
     9
100
AcDbLine
 10
99.0
 20
145.0
 30
0.0
 11
198.0000000000001
 21
145.0
 31
0.0
  0
LINE
  5
9C02
330
1F
100
AcDbEntity
  8
-
100
AcDbLine
 10
101.5000000000001
 20
0.0
 30
0.0
 11
194.5000000000002
 21
0.0
 31
0.0
  0
LINE
  5
9C03
330
1F
100
AcDbEntity
  8
-
 62
     9
370
    30
100
AcDbLine
 10
99.0
 20
6.49999999999997
 30
0.0
 11
99.0
 21
145.0
 31
0.0
  0
LINE
  5
9C04
330
1F
100
AcDbEntity
  8
-
100
AcDbLine
 10
194.5
 20
0.0
 30
0.0
 11
101.5000000000001
 21
0.0
 31
0.0
  0
LINE
  5
9C05
330
1F
100
AcDbEntity
  8
-
100
AcDbLine
 10
99.0
 20
0.0
 30
0.0
 11
198.0000000000001
 21
0.0
 31
0.0
  0
LINE
  5
9C06
330
1F
100
AcDbEntity
  8
-
 62
     9
100
AcDbLine
 10
198.0000000000001
 20
144.9999999999999
 30
0.0
 11
198.0000000000001
 21
0.0
 31
0.0
  0
LINE
  5
9C07
330
1F
100
AcDbEntity
  8
-
100
AcDbLine
 10
99.00000000000011
 20
0.0000000000000284
 30
0.0
 11
198.0000000000001
 21
0.0000000000000284
 31
0.0
  0
MTEXT
  5
9C08
102
{ACAD_XDICTIONARY
360
A009
102
}
330
1F
100
AcDbEntity
  8
文字
 62
     7
 48
2.0
100
AcDbMText
 10
160.5593621918639
 20
10.3649977240953
 30
0.0
 40
1.8
 41
0.0
 71
     5
 72
     1
  1
1/4"\P{\Ftxt,bigfont|c128;   \M+18352\M+1836C\M+1834E\M+1835E\~ PT1/8"}
 73
     1
 44
1.0
1001
ACAD
1000
MTEXTBEGIN
1070
    73
1070
     1
1070
    44
1040
1.0
1070
    74
1070
     0
1000
MTEXTEND
  0
LINE
  5
9C09
330
1F
100
AcDbEntity
  8
文字
 62
     7
 48
5.0
100
AcDbLine
 39
2.0
 10
124.4565055349261
 20
14.01149462237168
 30
0.0
 11
127.1224073927807
 21
14.67797008683527
 31
0.0
  0
MTEXT
  5
9C0A
330
1F
100
AcDbEntity
  8
0
100
AcDbMText
 10
139.6175883259819
 20
14.6139115266946
 30
0.0
 40
2.25
 41
0.0
 71
     1
 72
     5
  1
{\Ftxt,bigfont|c128;NOT/S}
  7
JL
 73
     1
 44
1.0
1001
ACAD
1000
MTEXTBEGIN
1070
    73
1070
     1
1070
    44
1040
1.0
1070
    74
1070
     0
1000
MTEXTEND
  0
LINE
  5
9C0B
330
1F
100
AcDbEntity
  8
-
 62
     9
100
AcDbLine
 10
99.00000000000011
 20
16.00000000000005
 30
0.0
 11
198.0000000000001
 21
16.00000000000005
 31
0.0
  0
LINE
  5
9C0C
330
1F
100
AcDbEntity
  8
-
 62
     9
100
AcDbLine
 10
99.00000000000011
 20
11.00000000000005
 30
0.0
 11
147.0
 21
11.00000000000005
 31
0.0
  0
LINE
  5
9C0D
330
1F
100
AcDbEntity
  8
-
 62
     9
100
AcDbLine
 10
99.00000000000011
 20
6.000000000000028
 30
0.0
 11
198.0000000000001
 21
6.000000000000055
 31
0.0
  0
CIRCLE
  5
9C0F
330
1F
100
AcDbEntity
  8
文字
 62
     7
100
AcDbCircle
 10
120.1244150159124
 20
13.34501915790798
 30
0.0
 40
1.33295092892732
  0
LINE
  5
9C10
330
1F
100
AcDbEntity
  8
文字
 62
     7
370
    25
100
AcDbLine
 10
118.4586156209742
 20
13.34501915790798
 30
0.0
 11
121.8897109301391
 21
13.34501915790798
 31
0.0
  0
MTEXT
  5
9C11
102
{ACAD_XDICTIONARY
360
A00B
102
}
330
1F
100
AcDbEntity
  8
0
100
AcDbMText
 10
106.8425062644107
 20
4.30218233670476
 30
0.0
 40
3.0
 41
0.0
 71
     1
 72
     5
  1
\Ftxt.shx,bigfont.shx|c128;\M+193FA\M+18B40\M+18A94\M+18EAE\M+189EF\M+18ED0
  7
LKK
 73
     1
 44
1.0
1001
ACAD
1000
MTEXTBEGIN
1070
    73
1070
     1
1070
    44
1040
1.0
1070
    74
1070
     0
1000
MTEXTEND
  0
CIRCLE
  5
9C12
330
1F
100
AcDbEntity
  8
文字
 62
     7
100
AcDbCircle
 10
120.1244150159124
 20
13.34501915790798
 30
0.0
 40
0.6664754644636604
  0
LINE
  5
9C13
330
1F
100
AcDbEntity
  8
文字
 62
     7
370
    25
100
AcDbLine
 10
120.1244150159124
 20
11.68330699186316
 30
0.0
 11
120.1244150159124
 21
14.90116638321086
 31
0.0
  0
MTEXT
  5
9C14
102
{ACAD_XDICTIONARY
360
A00D
102
}
330
1F
100
AcDbEntity
  8
0
100
AcDbMText
 10
100.0485988121616
 20
14.43235806153478
 30
0.0
 40
2.25
 41
0.0
 71
     1
 72
     5
  1
\Ftxt.shx,bigfont.shx|c128;\M+193FA \M+19574
  7
JL
 73
     1
 44
1.0
1001
ACAD
1000
MTEXTBEGIN
1070
    73
1070
     1
1070
    44
1040
1.0
1070
    74
1070
     0
1000
MTEXTEND
  0
LINE
  5
9C15
330
1F
100
AcDbEntity
  8
-
100
AcDbLine
 10
105.0000000000001
 20
16.00000000000005
 30
0.0
 11
105.0000000000001
 21
6.000000000000028
 31
0.0
  0
LINE
  5
9C16
330
1F
100
AcDbEntity
  8
-
 62
     9
100
AcDbLine
 10
115.0000000000001
 20
16.00000000000005
 30
0.0
 11
115.0000000000001
 21
6.000000000000028
 31
0.0
  0
MTEXT
  5
9C17
102
{ACAD_XDICTIONARY
360
A00F
102
}
330
1F
100
AcDbEntity
  8
0
100
AcDbMText
 10
100.1217328702063
 20
9.827952392133221
 30
0.0
 40
2.25
 41
0.0
 71
     1
 72
     5
  1
\Ftxt.shx,bigfont.shx|c128;\M+190BB \M+1907D
  7
JL
 73
     1
 44
1.0
1001
ACAD
1000
MTEXTBEGIN
1070
    73
1070
     1
1070
    44
1040
1.0
1070
    74
1070
     0
1000
MTEXTEND
  0
MTEXT
  5
9C18
102
{ACAD_XDICTIONARY
360
A011
102
}
330
1F
100
AcDbEntity
  8
0
100
AcDbMText
 10
116.6499660182188
 20
9.608694610618897
 30
0.0
 40
2.25
 41
0.0
 71
     1
 72
     5
  1
\Ftxt.shx,bigfont.shx|c128;\M+18C9F \M+1907D
  7
JL
 73
     1
 44
1.0
1001
ACAD
1000
MTEXTBEGIN
1070
    73
1070
     1
1070
    44
1040
1.0
1070
    74
1070
     0
1000
MTEXTEND
  0
LINE
  5
9C19
330
1F
100
AcDbEntity
  8
-
100
AcDbLine
 10
121.0000000000001
 20
10.99999999999994
 30
0.0
 11
121.0000000000001
 21
6.000000000000028
 31
0.0
  0
LINE
  5
9C1A
330
1F
100
AcDbEntity
  8
-
100
AcDbLine
 10
137.0000000000001
 20
16.00000000000005
 30
0.0
 11
137.0000000000001
 21
6.000000000000028
 31
0.0
  0
LINE
  5
9C1B
330
1F
100
AcDbEntity
  8
文字
 62
     7
370
    25
100
AcDbLine
 10
124.4565055349261
 20
12.67854369344439
 30
0.0
 11
124.4565055349261
 21
14.01149462237168
 31
0.0
  0
LINE
  5
9C1C
330
1F
100
AcDbEntity
  8
文字
 62
     7
370
    25
100
AcDbLine
 10
127.1224073927807
 20
12.01206822898069
 30
0.0
 11
127.1224073927807
 21
14.67797008683527
 31
0.0
  0
LINE
  5
9C1D
330
1F
100
AcDbEntity
  8
-
 62
     9
100
AcDbLine
 10
131.0000000000001
 20
16.00000000000005
 30
0.0
 11
131.0000000000001
 21
6.000000000000028
 31
0.0
  0
MTEXT
  5
9C1E
102
{ACAD_XDICTIONARY
360
A013
102
}
330
1F
100
AcDbEntity
  8
0
100
AcDbMText
 10
132.1543277978668
 20
14.5054437019508
 30
0.0
 40
2.25
 41
0.0
 71
     1
 72
     5
  1
\Ftxt.shx,bigfont.shx|c128;\M+18EDA \M+19378
  7
JL
 73
     1
 44
1.0
1001
ACAD
1000
MTEXTBEGIN
1070
    73
1070
     1
1070
    44
1040
1.0
1070
    74
1070
     0
1000
MTEXTEND
  0
MTEXT
  5
9C1F
102
{ACAD_XDICTIONARY
360
A015
102
}
330
1F
100
AcDbEntity
  8
0
100
AcDbMText
 10
132.3005945528915
 20
9.608694610618897
 30
0.0
 40
2.25
 41
0.0
 71
     1
 72
     5
  1
\Ftxt.shx,bigfont.shx|c128;\M+18FB3 \M+19446
  7
JL
 73
     1
 44
1.0
1001
ACAD
1000
MTEXTBEGIN
1070
    73
1070
     1
1070
    44
1040
1.0
1070
    74
1070
     0
1000
MTEXTEND
  0
MTEXT
  5
9C20
102
{ACAD_XDICTIONARY
360
A017
102
}
330
1F
100
AcDbEntity
  8
0
100
AcDbMText
 10
123.9097413947489
 20
9.686999171581362
 30
0.0
 40
2.5
 41
0.0
 71
     1
 72
     5
  1
{\Ftxt,bigfont|c128;\M+18FAC\~\M+196F6}
  7
JL
 73
     1
 44
1.0
1001
ACAD
1000
MTEXTBEGIN
1070
    73
1070
     1
1070
    44
1040
1.0
1070
    74
1070
     0
1000
MTEXTEND
  0
LINE
  5
9C21
330
1F
100
AcDbEntity
  8
文字
 62
     7
100
AcDbLine
 10
124.4565055349261
 20
12.67854369344439
 30
0.0
 11
127.1224073927807
 21
12.01206822898069
 31
0.0
  0
LINE
  5
9C22
330
1F
100
AcDbEntity
  8
文字
 62
     7
370
    25
100
AcDbLine
 10
124.0729043622849
 20
13.34501915790798
 30
0.0
 11
127.3617395662703
 21
13.34501915790798
 31
0.0
  0
LINE
  5
9C23
330
1F
100
AcDbEntity
  8
-
100
AcDbLine
 10
184.5000000000001
 20
6.004535139213685
 30
0.0
 11
184.5000000000001
 21
0.0000000000000284
 31
0.0
  0
LINE
  5
9C24
330
1F
100
AcDbEntity
  8
-
 62
     9
100
AcDbLine
 10
147.0000000000001
 20
16.00000000000005
 30
0.0
 11
147.0000000000001
 21
0.0955208054625985
 31
0.0
  0
MTEXT
  5
9C25
330
1F
100
AcDbEntity
  8
文字
 62
     7
 48
2.0
370
    25
100
AcDbMText
 10
172.0617134453158
 20
1.818484967414547
 30
0.0
 40
2.25
 41
0.0
 71
     5
 72
     1
  1
{\Ftxt,bigfont|c128;NN82025}
 73
     1
 44
1.0
1001
ACAD
1000
MTEXTBEGIN
1070
    73
1070
     1
1070
    44
1040
1.0
1070
    74
1070
     0
1000
MTEXTEND
  0
MTEXT
  5
9C26
102
{ACAD_XDICTIONARY
360
A019
102
}
330
1F
100
AcDbEntity
  8
0
100
AcDbMText
 10
147.8285127813192
 20
5.576660723278706
 30
0.0
 40
2.5
 41
0.0
 71
     1
 72
     5
  1
\Ftxt.shx,bigfont.shx|c128;\M+1907D  \M+196CA  \M+194D4  \M+18D86
  7
JL
 73
     1
 44
1.0
1001
ACAD
1000
MTEXTBEGIN
1070
    73
1070
     1
1070
    44
1040
1.0
1070
    74
1070
     0
1000
MTEXTEND
  0
MTEXT
  5
9C27
102
{ACAD_XDICTIONARY
360
A01B
102
}
330
1F
100
AcDbEntity
  8
0
370
    25
100
AcDbMText
 10
147.5649772439824
 20
15.06099553721133
 30
0.0
 40
2.5
 41
0.0
 71
     1
 72
     5
  1
\Ftxt.shx,bigfont.shx|c128;\M+19569  \M+196BC
  7
JL
 73
     1
 44
1.0
1001
ACAD
1000
MTEXTBEGIN
1070
    73
1070
     1
1070
    44
1040
1.0
1070
    74
1070
     0
1000
MTEXTEND
  0
MTEXT
  5
9C28
102
{ACAD_XDICTIONARY
360
A01D
102
}
330
1F
100
AcDbEntity
  8
0
370
    25
100
AcDbMText
 10
176.7895678556737
 20
14.95040028065938
 30
0.0
 40
2.5
 41
0.0
 71
     1
 72
     5
  1
\Ftxt.shx,bigfont.shx|c128;\M+18C5E  \M+194D4
  7
JL
 73
     1
 44
1.0
1001
ACAD
1000
MTEXTBEGIN
1070
    73
1070
     1
1070
    44
1040
1.0
1070
    74
1070
     0
1000
MTEXTEND
  0
LINE
  5
9C29
330
1F
100
AcDbEntity
  8
-
 62
     9
100
AcDbLine
 10
175.6117800954343
 20
16.00000000000005
 30
0.0
 11
175.6117800954343
 21
6.000000000000028
 31
0.0
  0
MTEXT
  5
9C2A
102
{ACAD_XDICTIONARY
360
A01F
102
}
330
1F
100
AcDbEntity
  8
0
100
AcDbMText
 10
185.3677240755457
 20
5.596928204745751
 30
0.0
 40
2.5
 41
0.0
 71
     1
 72
     5
  1
\Ftxt.shx,bigfont.shx|c128;\M+195CF\M+18D58
  7
JL
 73
     1
 44
1.0
1001
ACAD
1000
MTEXTBEGIN
1070
    73
1070
     1
1070
    44
1040
1.0
1070
    74
1070
     0
1000
MTEXTEND
  0
MTEXT
  5
9C2B
330
1F
100
AcDbEntity
  8
0
100
AcDbMText
 10
107.9097413947488
 20
9.686999171581362
 30
0.0
 40
2.5
 41
0.0
 71
     1
 72
     5
  1
\Ftxt.shx,bigfont.shx|c128;XXX
  7
JL
 73
     1
 44
1.0
1001
ACAD
1000
MTEXTBEGIN
1070
    73
1070
     1
1070
    44
1040
1.0
1070
    74
1070
     0
1000
MTEXTEND
  0
MTEXT
  5
9C2C
330
1F
100
AcDbEntity
  8
0
100
AcDbMText
 10
105.9804099785464
 20
14.68699917158136
 30
0.0
 40
2.5
 41
0.0
 71
     1
 72
     5
  1
{\Ftxt,bigfont|c128;07.09.11}
  7
JL
 73
     1
 44
1.0
1001
ACAD
1000
MTEXTBEGIN
1070
    73
1070
     1
1070
    44
1040
1.0
1070
    74
1070
     0
1000
MTEXTEND
  0
MTEXT
  5
9C2D
330
1F
100
AcDbEntity
  8
文字
 62
     7
 48
2.0
100
AcDbMText
 10
186.2050836800708
 20
10.74813432420506
 30
0.0
 40
2.25
 41
0.0
 71
     5
 72
     1
  1
\P{\Ftxt,bigfont|c128;    82025}
 73
     1
 44
1.0
1001
ACAD
1000
MTEXTBEGIN
1070
    73
1070
     1
1070
    44
1040
1.0
1070
    74
1070
     0
1000
MTEXTEND
  0
LINE
  5
9CBB
330
1F
100
AcDbEntity
  8
本体外線
 62
     4
100
AcDbLine
 10
132.3065595577641
 20
93.56277555456586
 30
0.0
 11
122.3265595577641
 21
93.26866946419263
 31
0.0
  0
LINE
  5
9CBC
330
1F
100
AcDbEntity
  8
本体外線
 62
     4
100
AcDbLine
 10
132.3065595577642
 20
84.83506696798096
 30
0.0
 11
122.3265595577642
 21
85.12917305835415
 31
0.0
  0
LINE
  5
9CBD
330
1F
100
AcDbEntity
  8
本体外線
100
AcDbLine
 10
132.3065595577642
 20
84.25481517090018
 30
0.0
 11
122.3265595577642
 21
84.54892126127338
 31
0.0
  0
LINE
  5
9CBE
330
1F
100
AcDbEntity
  8
本体外線
100
AcDbLine
 10
132.3065595577641
 20
94.14302735164667
 30
0.0
 11
122.3265595577641
 21
93.8489212612734
 31
0.0
  0
LINE
  5
9CBF
330
1F
100
AcDbEntity
  8
中心線
  6
CENTER
 48
0.15
100
AcDbLine
 10
120.6265595577642
 20
89.1989212612734
 30
0.0
 11
148.9265595577642
 21
89.19892126127345
 31
0.0
  0
LINE
  5
9CC0
330
1F
100
AcDbEntity
  8
本体外線
100
AcDbLine
 10
121.8265595577641
 20
93.1989212612734
 30
0.0
 11
121.8265595577642
 21
85.1989212612734
 31
0.0
  0
LINE
  5
9CC1
330
1F
100
AcDbEntity
  8
本体外線
100
AcDbLine
 10
137.8065595577642
 20
96.19892126127357
 30
0.0
 11
137.8065595577642
 21
82.19892126127335
 31
0.0
  0
LINE
  5
9CC2
330
1F
100
AcDbEntity
  8
本体外線
100
AcDbLine
 10
132.3065595577641
 20
96.19892126127361
 30
0.0
 11
132.3065595577642
 21
82.19892126127332
 31
0.0
  0
LINE
  5
9CC3
330
1F
100
AcDbEntity
  8
本体外線
100
AcDbLine
 10
139.3065595577642
 20
94.69892126127357
 30
0.0
 11
139.3065595577642
 21
83.69892126127334
 31
0.0
  0
LINE
  5
9CC4
330
1F
100
AcDbEntity
  8
本体外線
100
AcDbLine
 10
140.8065595577641
 20
93.98453511949472
 30
0.0
 11
140.8065595577642
 21
84.41330740305216
 31
0.0
  0
LINE
  5
9CC5
330
1F
100
AcDbEntity
  8
本体外線
100
AcDbLine
 10
140.8065595577642
 20
84.41330740305216
 30
0.0
 11
139.3065595577642
 21
84.41330740305218
 31
0.0
  0
LINE
  5
9CC6
330
1F
100
AcDbEntity
  8
本体外線
100
AcDbLine
 10
132.3065595577641
 20
96.19892126127361
 30
0.0
 11
137.8065595577642
 21
96.19892126127357
 31
0.0
  0
LINE
  5
9CC7
330
1F
100
AcDbEntity
  8
本体外線
100
AcDbLine
 10
140.8065595577641
 20
93.98453511949472
 30
0.0
 11
139.3065595577641
 21
93.98453511949469
 31
0.0
  0
ARC
  5
9CC9
330
1F
100
AcDbEntity
  8
本体外線
100
AcDbCircle
 10
144.8065595577641
 20
89.19892126127342
 30
0.0
 40
6.25
100
AcDbArc
 50
61.31459798588005
 51
129.7918194995563
  0
ARC
  5
9CCA
330
1F
100
AcDbEntity
  8
本体外線
100
AcDbCircle
 10
144.8065595577641
 20
89.19892126127342
 30
0.0
 40
6.25
100
AcDbArc
 50
230.2081805004436
 51
298.6854020141183
  0
LINE
  5
9CCB
330
1F
100
AcDbEntity
  8
本体外線
100
AcDbLine
 10
140.8065595577641
 20
94.00126443934809
 30
0.0
 11
140.8065595577641
 21
84.39657808319877
 31
0.0
  0
LINE
  5
9CCC
330
1F
100
AcDbEntity
  8
本体外線
100
AcDbLine
 10
147.8065595577641
 20
94.68184931113873
 30
0.0
 11
147.8065595577641
 21
83.71599321140811
 31
0.0
  0
LINE
  5
9CCD
330
1F
100
AcDbEntity
  8
中心線
  6
CENTER
 48
0.1
100
AcDbLine
 10
144.8065595577641
 20
96.44892126127343
 30
0.0
 11
144.8065595577641
 21
81.94892126127342
 31
0.0
  0
LINE
  5
9CCE
330
1F
100
AcDbEntity
  8
本体外線
100
AcDbLine
 10
121.8265595577641
 20
93.1989212612734
 30
0.0
 11
122.3265595577641
 21
93.19892126127342
 31
0.0
  0
LINE
  5
9CCF
330
1F
100
AcDbEntity
  8
本体外線
100
AcDbLine
 10
121.8265595577642
 20
85.1989212612734
 30
0.0
 11
122.3265595577642
 21
85.1989212612734
 31
0.0
  0
LINE
  5
9CD0
330
1F
100
AcDbEntity
  8
本体外線
100
AcDbLine
 10
122.3265595577641
 20
93.8489212612734
 30
0.0
 11
122.3265595577642
 21
84.54892126127338
 31
0.0
  0
ARC
  5
9CD1
330
1F
100
AcDbEntity
  8
本体外線
100
AcDbCircle
 10
137.8065595577642
 20
94.69892126127357
 30
0.0
 40
1.5
100
AcDbArc
 50
0.0
 51
90.0
  0
LINE
  5
9CD2
330
1F
100
AcDbEntity
  8
本体外線
100
AcDbLine
 10
139.3065595577642
 20
89.19892126127342
 30
0.0
 11
132.3065595577641
 21
89.19892126127342
 31
0.0
  0
DIMENSION
  5
9D08
330
1F
100
AcDbEntity
  8
標註線
100
AcDbDimension
  2
*D38
 10
147.806559557764
 20
69.00589256625244
 30
0.0
 11
134.8165595577641
 21
70.48089256625243
 31
0.0
 70
    32
  1
26
 71
     5
 42
25.97999999999982
  3
STANDARD NET
100
AcDbAlignedDimension
 13
121.8265595577642
 23
85.1989212612734
 33
0.0
 14
147.806559557764
 24
83.71599321140806
 34
0.0
100
AcDbRotatedDimension
  0
LEADER
  5
9D22
330
1F
100
AcDbEntity
  8
標註線
 62
     6
100
AcDbLeader
  3
ISO-25
 73
     0
 75
     1
 40
1.8
 41
7.799999999999998
 76
     3
 10
127.332715581406
 20
93.96425256706681
 30
0.0
 10
122.8598914444753
 20
99.86032559634177
 30
0.0
 10
120.8598914444753
 20
99.86032559634177
 30
0.0
340
9D23
213
-0.6086853008119988
223
0.1399742704208648
233
0.0
1001
ACAD
1000
DSTYLE
1002
{
1070
   341
1005
98B8
1002
}
  0
MTEXT
  5
9D23
102
{ACAD_REACTORS
330
9D22
102
}
330
1F
100
AcDbEntity
  8
標註線
 62
     3
100
AcDbMText
 10
120.4685767452873
 20
101.6203513259209
 30
0.0
 40
1.8
 41
0.0
 71
     6
 72
     1
  1
PT1/8
 73
     1
 44
1.0
1001
ACAD
1000
MTEXTBEGIN
1070
    73
1070
     1
1070
    44
1040
1.0
1070
    74
1070
     0
1000
MTEXTEND
  0
DIMENSION
  5
9DC3
330
1F
100
AcDbEntity
  8
標註線
100
AcDbDimension
  2
*D39
 10
162.1929062976695
 20
82.19892126127351
 30
0.0
 11
160.7179062976695
 21
89.19892126127356
 31
0.0
 70
    32
 71
     5
 42
14.00000000000005
  3
STANDARD NET
100
AcDbAlignedDimension
 13
171.0149428515792
 23
96.19892126127357
 33
0.0
 14
171.0149428515792
 24
82.19892126127351
 34
0.0
 50
90.0
100
AcDbRotatedDimension
  0
LINE
  5
9DD3
330
1F
100
AcDbEntity
  8
本体外線
100
AcDbLine
 10
132.3065595577641
 20
82.19892126127332
 30
0.0
 11
137.8065595577642
 21
82.19892126127334
 31
0.0
  0
ARC
  5
9DD4
330
1F
100
AcDbEntity
  8
本体外線
100
AcDbCircle
 10
137.8065595577642
 20
83.69892126127334
 30
0.0
 40
1.5
100
AcDbArc
 50
270.0
 51
0.0
  0
DIMENSION
  5
9EEB
102
{ACAD_XDICTIONARY
360
9EF8
102
}
102
{ACAD_REACTORS
330
9EF9
102
}
330
1F
100
AcDbEntity
  8
標註線
100
AcDbDimension
  2
*D41
 10
144.8065595577641
 20
106.26196477199
 30
0.0
 11
133.3165595577641
 21
107.73696477199
 31
0.0
 70
    32
  1
23
 71
     5
 42
22.97999999999996
  3
STANDARD NET
100
AcDbAlignedDimension
 13
121.8265595577641
 23
93.1989212612734
 33
0.0
 14
144.8065595577641
 24
96.44892126127343
 34
0.0
100
AcDbRotatedDimension
  0
DIMENSION
  5
9F1E
330
1F
100
AcDbEntity
  8
標註線
100
AcDbDimension
  2
*D42
 10
121.8265595577642
 20
76.35170001795671
 30
0.0
 11
127.0665595577642
 21
77.82670001795671
 31
0.0
 70
    32
  1
10.5
 71
     5
 42
10.47999999999993
  3
STANDARD NET
100
AcDbAlignedDimension
 13
132.3065595577641
 23
82.19892126127332
 33
0.0
 14
121.8265595577642
 24
85.1989212612734
 34
0.0
100
AcDbRotatedDimension
  0
ENDSEC
  0
SECTION
  2
OBJECTS
  0
DICTIONARY
  5
C
330
0
100
AcDbDictionary
281
     1
  3
ACAD_COLOR
350
973F
  3
ACAD_GROUP
350
D
  3
ACAD_LAYOUT
350
1A
  3
ACAD_MATERIAL
350
973E
  3
ACAD_MLEADERSTYLE
350
99F0
  3
ACAD_MLINESTYLE
350
17
  3
ACAD_PLOTSETTINGS
350
19
  3
ACAD_PLOTSTYLENAME
350
E
  3
ACAD_SCALELIST
350
99DE
  3
ACAD_TABLESTYLE
350
9740
  3
ACAD_VISUALSTYLE
350
99C5
  3
ACDB_RECOMPOSE_DATA
350
9F69
  3
AcDbVariableDictionary
350
74C
  3
AcmDictionary
350
9A47
  3
AEC_PROPERTY_SET_DEFS
350
9B33
  3
AMG
350
99F9
  3
AMGSNAPSETTINGS
350
9A86
  3
ASE_INDEX_DICTIONARY
350
14E
  3
DWGPROPS
350
9F6A
  0
DICTIONARY
  5
9AE6
330
2
100
AcDbDictionary
280
     1
281
     1
  3
ACAD_LAYERSTATES
360
9AE7
  0
DICTIONARY
  5
9D24
330
10
100
AcDbDictionary
280
     1
281
     1
  3
ADSK_XREC_LAYER_RECONCILED
360
9D25
  0
DICTIONARY
  5
9D26
330
22C5
100
AcDbDictionary
280
     1
281
     1
  3
ADSK_XREC_LAYER_RECONCILED
360
9D27
  0
DICTIONARY
  5
9D28
330
22C6
100
AcDbDictionary
280
     1
281
     1
  3
ADSK_XREC_LAYER_RECONCILED
360
9D29
  0
DICTIONARY
  5
9D2A
330
22C7
100
AcDbDictionary
280
     1
281
     1
  3
ADSK_XREC_LAYER_RECONCILED
360
9D2B
  0
DICTIONARY
  5
9D2C
330
22C8
100
AcDbDictionary
280
     1
281
     1
  3
ADSK_XREC_LAYER_RECONCILED
360
9D2D
  0
DICTIONARY
  5
9D2E
330
22C9
100
AcDbDictionary
280
     1
281
     1
  3
ADSK_XREC_LAYER_RECONCILED
360
9D2F
  0
DICTIONARY
  5
9D30
330
22CA
100
AcDbDictionary
280
     1
281
     1
  3
ADSK_XREC_LAYER_RECONCILED
360
9D31
  0
DICTIONARY
  5
9D32
330
22CB
100
AcDbDictionary
280
     1
281
     1
  3
ADSK_XREC_LAYER_RECONCILED
360
9D33
  0
DICTIONARY
  5
9D34
330
22CD
100
AcDbDictionary
280
     1
281
     1
  3
ADSK_XREC_LAYER_RECONCILED
360
9D35
  0
DICTIONARY
  5
9D36
330
22CF
100
AcDbDictionary
280
     1
281
     1
  3
ADSK_XREC_LAYER_RECONCILED
360
9D37
  0
DICTIONARY
  5
9D38
330
22D5
100
AcDbDictionary
280
     1
281
     1
  3
ADSK_XREC_LAYER_RECONCILED
360
9D39
  0
DICTIONARY
  5
9D3A
330
8C0D
100
AcDbDictionary
280
     1
281
     1
  3
ADSK_XREC_LAYER_RECONCILED
360
9D3B
  0
DICTIONARY
  5
8AB
330
1F
100
AcDbDictionary
280
     1
281
     1
  3
ACAD_LAYOUTSELFREF
360
227F
  3
ACAD_SORTENTS
360
9C91
  0
DICTIONARY
  5
8AD
330
1B
100
AcDbDictionary
280
     1
281
     1
  3
ACAD_LAYOUTSELFREF
360
227E
  0
DICTIONARY
  5
8AF
330
23
100
AcDbDictionary
280
     1
281
     1
  3
ACAD_LAYOUTSELFREF
360
2280
  0
DICTIONARY
  5
9F70
330
7F4D
100
AcDbDictionary
280
     1
281
     1
  3
ACAD_MTEXT_RT
360
9F71
  0
DICTIONARY
  5
9F72
330
8B3A
100
AcDbDictionary
280
     1
281
     1
  3
ACAD_MTEXT_RT
360
9F73
  0
DICTIONARY
  5
9F74
330
8B3B
100
AcDbDictionary
280
     1
281
     1
  3
ACAD_MTEXT_RT
360
9F75
  0
DICTIONARY
  5
9F76
330
8B3C
100
AcDbDictionary
280
     1
281
     1
  3
ACAD_MTEXT_RT
360
9F77
  0
DICTIONARY
  5
9F78
330
8B3D
100
AcDbDictionary
280
     1
281
     1
  3
ACAD_MTEXT_RT
360
9F79
  0
DICTIONARY
  5
9F7A
330
8B59
100
AcDbDictionary
280
     1
281
     1
  3
ACAD_MTEXT_RT
360
9F7B
  0
DICTIONARY
  5
9F7C
330
8C14
100
AcDbDictionary
280
     1
281
     1
  3
ACAD_MTEXT_RT
360
9F7D
  0
DICTIONARY
  5
9F7E
330
8C15
100
AcDbDictionary
280
     1
281
     1
  3
ACAD_MTEXT_RT
360
9F7F
  0
DICTIONARY
  5
9F80
330
8C26
100
AcDbDictionary
280
     1
281
     1
  3
ACAD_MTEXT_RT
360
9F81
  0
DICTIONARY
  5
9F82
330
8C27
100
AcDbDictionary
280
     1
281
     1
  3
ACAD_MTEXT_RT
360
9F83
  0
DICTIONARY
  5
9F84
330
8C35
100
AcDbDictionary
280
     1
281
     1
  3
ACAD_MTEXT_RT
360
9F85
  0
DICTIONARY
  5
9F86
330
8C37
100
AcDbDictionary
280
     1
281
     1
  3
ACAD_MTEXT_RT
360
9F87
  0
DICTIONARY
  5
9F88
330
8C38
100
AcDbDictionary
280
     1
281
     1
  3
ACAD_MTEXT_RT
360
9F89
  0
DICTIONARY
  5
9F8A
330
8C39
100
AcDbDictionary
280
     1
281
     1
  3
ACAD_MTEXT_RT
360
9F8B
  0
DICTIONARY
  5
9F8C
330
8C49
100
AcDbDictionary
280
     1
281
     1
  3
ACAD_MTEXT_RT
360
9F8D
  0
DICTIONARY
  5
9F8E
330
8C4A
100
AcDbDictionary
280
     1
281
     1
  3
ACAD_MTEXT_RT
360
9F8F
  0
DICTIONARY
  5
9F90
330
8C4B
100
AcDbDictionary
280
     1
281
     1
  3
ACAD_MTEXT_RT
360
9F91
  0
DICTIONARY
  5
9F92
330
8C55
100
AcDbDictionary
280
     1
281
     1
  3
ACAD_MTEXT_RT
360
9F93
  0
DICTIONARY
  5
9F94
330
8C56
100
AcDbDictionary
280
     1
281
     1
  3
ACAD_MTEXT_RT
360
9F95
  0
DICTIONARY
  5
9F96
330
8C57
100
AcDbDictionary
280
     1
281
     1
  3
ACAD_MTEXT_RT
360
9F97
  0
DICTIONARY
  5
9F98
330
8C58
100
AcDbDictionary
280
     1
281
     1
  3
ACAD_MTEXT_RT
360
9F99
  0
DICTIONARY
  5
9F9A
330
8C59
100
AcDbDictionary
280
     1
281
     1
  3
ACAD_MTEXT_RT
360
9F9B
  0
DICTIONARY
  5
9F9C
330
8C5B
100
AcDbDictionary
280
     1
281
     1
  3
ACAD_MTEXT_RT
360
9F9D
  0
DICTIONARY
  5
9F9E
330
8C5C
100
AcDbDictionary
280
     1
281
     1
  3
ACAD_MTEXT_RT
360
9F9F
  0
DICTIONARY
  5
9FA0
330
8C60
100
AcDbDictionary
280
     1
281
     1
  3
ACAD_MTEXT_RT
360
9FA1
  0
DICTIONARY
  5
9FA2
330
8C61
100
AcDbDictionary
280
     1
281
     1
  3
ACAD_MTEXT_RT
360
9FA3
  0
DICTIONARY
  5
9FA4
330
8C62
100
AcDbDictionary
280
     1
281
     1
  3
ACAD_MTEXT_RT
360
9FA5
  0
DICTIONARY
  5
9FA6
330
8C64
100
AcDbDictionary
280
     1
281
     1
  3
ACAD_MTEXT_RT
360
9FA7
  0
DICTIONARY
  5
9FA8
330
8C65
100
AcDbDictionary
280
     1
281
     1
  3
ACAD_MTEXT_RT
360
9FA9
  0
DICTIONARY
  5
9FAA
330
8C66
100
AcDbDictionary
280
     1
281
     1
  3
ACAD_MTEXT_RT
360
9FAB
  0
DICTIONARY
  5
9FAC
330
8C68
100
AcDbDictionary
280
     1
281
     1
  3
ACAD_MTEXT_RT
360
9FAD
  0
DICTIONARY
  5
9FAE
330
8C69
100
AcDbDictionary
280
     1
281
     1
  3
ACAD_MTEXT_RT
360
9FAF
  0
DICTIONARY
  5
9FB0
330
8C6B
100
AcDbDictionary
280
     1
281
     1
  3
ACAD_MTEXT_RT
360
9FB1
  0
DICTIONARY
  5
9FB2
330
8C6C
100
AcDbDictionary
280
     1
281
     1
  3
ACAD_MTEXT_RT
360
9FB3
  0
DICTIONARY
  5
9FB4
330
8CD6
100
AcDbDictionary
280
     1
281
     1
  3
ACAD_MTEXT_RT
360
9FB5
  0
DICTIONARY
  5
9FB6
330
8CD7
100
AcDbDictionary
280
     1
281
     1
  3
ACAD_MTEXT_RT
360
9FB7
  0
DICTIONARY
  5
9FB8
330
8F43
100
AcDbDictionary
280
     1
281
     1
  3
ACAD_MTEXT_RT
360
9FB9
  0
DICTIONARY
  5
9FBA
330
8F7F
100
AcDbDictionary
280
     1
281
     1
  3
ACAD_MTEXT_RT
360
9FBB
  0
DICTIONARY
  5
9FBC
330
8F8B
100
AcDbDictionary
280
     1
281
     1
  3
ACAD_MTEXT_RT
360
9FBD
  0
DICTIONARY
  5
9FBE
330
8FA0
100
AcDbDictionary
280
     1
281
     1
  3
ACAD_MTEXT_RT
360
9FBF
  0
DICTIONARY
  5
9FC0
330
8FAB
100
AcDbDictionary
280
     1
281
     1
  3
ACAD_MTEXT_RT
360
9FC1
  0
DICTIONARY
  5
9FC2
330
8FF3
100
AcDbDictionary
280
     1
281
     1
  3
ACAD_MTEXT_RT
360
9FC3
  0
DICTIONARY
  5
9FC4
330
9025
100
AcDbDictionary
280
     1
281
     1
  3
ACAD_MTEXT_RT
360
9FC5
  0
DICTIONARY
  5
9FC6
330
9056
100
AcDbDictionary
280
     1
281
     1
  3
ACAD_MTEXT_RT
360
9FC7
  0
DICTIONARY
  5
9FC8
330
96D5
100
AcDbDictionary
280
     1
281
     1
  3
ACAD_MTEXT_RT
360
9FC9
  0
DICTIONARY
  5
9FCA
330
96DF
100
AcDbDictionary
280
     1
281
     1
  3
ACAD_MTEXT_RT
360
9FCB
  0
DICTIONARY
  5
9FCC
330
96E1
100
AcDbDictionary
280
     1
281
     1
  3
ACAD_MTEXT_RT
360
9FCD
  0
DICTIONARY
  5
9FCE
330
96E2
100
AcDbDictionary
280
     1
281
     1
  3
ACAD_MTEXT_RT
360
9FCF
  0
DICTIONARY
  5
A009
330
9C08
100
AcDbDictionary
280
     1
281
     1
  3
ACAD_MTEXT_RT
360
A00A
  0
DICTIONARY
  5
A00B
330
9C11
100
AcDbDictionary
280
     1
281
     1
  3
ACAD_MTEXT_RT
360
A00C
  0
DICTIONARY
  5
A00D
330
9C14
100
AcDbDictionary
280
     1
281
     1
  3
ACAD_MTEXT_RT
360
A00E
  0
DICTIONARY
  5
A00F
330
9C17
100
AcDbDictionary
280
     1
281
     1
  3
ACAD_MTEXT_RT
360
A010
  0
DICTIONARY
  5
A011
330
9C18
100
AcDbDictionary
280
     1
281
     1
  3
ACAD_MTEXT_RT
360
A012
  0
DICTIONARY
  5
A013
330
9C1E
100
AcDbDictionary
280
     1
281
     1
  3
ACAD_MTEXT_RT
360
A014
  0
DICTIONARY
  5
A015
330
9C1F
100
AcDbDictionary
280
     1
281
     1
  3
ACAD_MTEXT_RT
360
A016
  0
DICTIONARY
  5
A017
330
9C20
100
AcDbDictionary
280
     1
281
     1
  3
ACAD_MTEXT_RT
360
A018
  0
DICTIONARY
  5
A019
330
9C26
100
AcDbDictionary
280
     1
281
     1
  3
ACAD_MTEXT_RT
360
A01A
  0
DICTIONARY
  5
A01B
330
9C27
100
AcDbDictionary
280
     1
281
     1
  3
ACAD_MTEXT_RT
360
A01C
  0
DICTIONARY
  5
A01D
330
9C28
100
AcDbDictionary
280
     1
281
     1
  3
ACAD_MTEXT_RT
360
A01E
  0
DICTIONARY
  5
A01F
330
9C2A
100
AcDbDictionary
280
     1
281
     1
  3
ACAD_MTEXT_RT
360
A020
  0
DICTIONARY
  5
9EF8
330
9EEB
100
AcDbDictionary
280
     1
281
     1
  3
ACMDIMBREAKPERSREACTOR
360
9EF9
  0
DICTIONARY
  5
973F
102
{ACAD_REACTORS
330
C
102
}
330
C
100
AcDbDictionary
281
     1
  0
DICTIONARY
  5
D
102
{ACAD_REACTORS
330
C
102
}
330
C
100
AcDbDictionary
281
     1
  0
DICTIONARY
  5
1A
102
{ACAD_REACTORS
330
C
102
}
330
C
100
AcDbDictionary
281
     1
  3
Model
350
22
  3
配置1
350
1E
  3
配置2
350
26
  0
DICTIONARY
  5
973E
102
{ACAD_REACTORS
330
C
102
}
330
C
100
AcDbDictionary
281
     1
  3
ByBlock
350
99B5
  3
ByLayer
350
99AD
  3
Global
350
99BD
  0
DICTIONARY
  5
99F0
102
{ACAD_REACTORS
330
C
102
}
330
C
100
AcDbDictionary
281
     1
  3
Standard
350
99F1
  0
DICTIONARY
  5
17
102
{ACAD_REACTORS
330
C
102
}
330
C
100
AcDbDictionary
281
     1
  3
Standard
350
18
  0
DICTIONARY
  5
19
102
{ACAD_REACTORS
330
C
102
}
330
C
100
AcDbDictionary
281
     1
  0
ACDBDICTIONARYWDFLT
  5
E
102
{ACAD_REACTORS
330
C
102
}
330
C
100
AcDbDictionary
281
     1
  3
Normal
350
F
100
AcDbDictionaryWithDefault
340
F
  0
DICTIONARY
  5
99DE
102
{ACAD_REACTORS
330
C
102
}
330
C
100
AcDbDictionary
281
     1
  3
A0
350
99DF
  3
A1
350
99E0
  3
A2
350
99E1
  3
A3
350
99E2
  3
A4
350
99E3
  3
A5
350
99E4
  3
A6
350
99E5
  3
A7
350
99E6
  3
A8
350
99E7
  3
A9
350
99E8
  3
B0
350
99E9
  3
B1
350
99EA
  3
B2
350
99EB
  3
B3
350
99EC
  3
B4
350
99ED
  3
B5
350
99EE
  3
B6
350
99EF
  0
DICTIONARY
  5
9740
102
{ACAD_REACTORS
330
C
102
}
330
C
100
AcDbDictionary
281
     1
  3
Standard
350
9741
  0
DICTIONARY
  5
99C5
102
{ACAD_REACTORS
330
C
102
}
330
C
100
AcDbDictionary
281
     1
  3
2dWireframe
350
99CB
  3
Basic
350
99CA
  3
Brighten
350
99D1
  3
ColorChange
350
99D5
  3
Conceptual
350
99CE
  3
Dim
350
99D0
  3
EdgeColorOff
350
99DD
  3
Facepattern
350
99D4
  3
Flat
350
99C6
  3
FlatWithEdges
350
99C7
  3
Gouraud
350
99C8
  3
GouraudWithEdges
350
99C9
  3
Hidden
350
99CD
  3
JitterOff
350
99DB
  3
Linepattern
350
99D3
  3
OverhangOff
350
99DC
  3
Realistic
350
99CF
  3
Shaded
350
99DA
  3
Shaded with edges
350
99D9
  3
Shades of Gray
350
99D6
  3
Sketchy
350
99D7
  3
Thicken
350
99D2
  3
Wireframe
350
99CC
  3
X-Ray
350
99D8
  0
XRECORD
  5
9F69
102
{ACAD_REACTORS
330
C
102
}
330
C
100
AcDbXrecord
280
     1
 90
        1
330
9741
  0
DICTIONARY
  5
74C
102
{ACAD_REACTORS
330
C
102
}
330
C
100
AcDbDictionary
281
     1
  3
CANNOSCALE
350
9D47
  3
CMLEADERSTYLE
350
9D45
  3
CTABLESTYLE
350
98AF
  3
DIMASSOC
350
9F66
  3
INDEXCTL
350
9F64
  3
LAYEREVAL
350
9D49
  3
LAYERNOTIFY
350
9D4A
  3
LIGHTINGUNITS
350
9D48
  3
MSLTSCALE
350
9D46
  3
SORTENTS
350
74D
  3
XCLIPFRAME
350
9F65
  0
DICTIONARY
  5
9A47
102
{ACAD_REACTORS
330
C
102
}
330
C
100
AcDbDictionary
281
     1
  3
AcmStdDictionary
350
9A50
  0
DICTIONARY
  5
9B33
102
{ACAD_REACTORS
330
C
102
}
330
C
100
AcDbDictionary
281
     1
  0
DICTIONARY
  5
99F9
102
{ACAD_REACTORS
330
C
102
}
330
C
100
AcDbDictionary
281
     1
  0
DICTIONARY
  5
9A86
102
{ACAD_REACTORS
330
C
102
}
330
C
100
AcDbDictionary
281
     1
  0
DICTIONARY
  5
14E
102
{ACAD_REACTORS
330
C
102
}
330
C
100
AcDbDictionary
281
     1
  3
ASEBlockHierarchyIndexRecord
350
150
1001
DCO15
1040
1467452171.78
  0
XRECORD
  5
9F6A
102
{ACAD_REACTORS
330
C
102
}
330
C
100
AcDbXrecord
280
     1
  1
DWGPROPS COOKIE
  2

  3

  4

  6

  7

  8
lin yen shu
  9

300
=
301
=
302
=
303
=
304
=
305
=
306
=
307
=
308
=
309
=
 40
1.037767465277777
 41
2452787.461415857
 42
2459230.734809838
  1

 90
        0
  0
DICTIONARY
  5
9AE7
102
{ACAD_REACTORS
330
9AE6
102
}
330
9AE6
100
AcDbDictionary
281
     1
  0
XRECORD
  5
9D25
102
{ACAD_REACTORS
330
9D24
102
}
330
9D24
100
AcDbXrecord
280
     1
290
     1
  0
XRECORD
  5
9D27
102
{ACAD_REACTORS
330
9D26
102
}
330
9D26
100
AcDbXrecord
280
     1
290
     1
  0
XRECORD
  5
9D29
102
{ACAD_REACTORS
330
9D28
102
}
330
9D28
100
AcDbXrecord
280
     1
290
     1
  0
XRECORD
  5
9D2B
102
{ACAD_REACTORS
330
9D2A
102
}
330
9D2A
100
AcDbXrecord
280
     1
290
     1
  0
XRECORD
  5
9D2D
102
{ACAD_REACTORS
330
9D2C
102
}
330
9D2C
100
AcDbXrecord
280
     1
290
     1
  0
XRECORD
  5
9D2F
102
{ACAD_REACTORS
330
9D2E
102
}
330
9D2E
100
AcDbXrecord
280
     1
290
     1
  0
XRECORD
  5
9D31
102
{ACAD_REACTORS
330
9D30
102
}
330
9D30
100
AcDbXrecord
280
     1
290
     1
  0
XRECORD
  5
9D33
102
{ACAD_REACTORS
330
9D32
102
}
330
9D32
100
AcDbXrecord
280
     1
290
     1
  0
XRECORD
  5
9D35
102
{ACAD_REACTORS
330
9D34
102
}
330
9D34
100
AcDbXrecord
280
     1
290
     1
  0
XRECORD
  5
9D37
102
{ACAD_REACTORS
330
9D36
102
}
330
9D36
100
AcDbXrecord
280
     1
290
     1
  0
XRECORD
  5
9D39
102
{ACAD_REACTORS
330
9D38
102
}
330
9D38
100
AcDbXrecord
280
     1
290
     1
  0
XRECORD
  5
9D3B
102
{ACAD_REACTORS
330
9D3A
102
}
330
9D3A
100
AcDbXrecord
280
     1
290
     1
  0
XRECORD
  5
227F
102
{ACAD_REACTORS
330
8AB
102
}
330
8AB
100
AcDbXrecord
280
     1
340
1F
  0
SORTENTSTABLE
  5
9C91
102
{ACAD_REACTORS
330
8AB
102
}
330
8AB
100
AcDbSortentsTable
330
1F
331
97DD
  5
97DD
331
9C26
  5
9C29
331
9C22
  5
9C25
331
9C1E
  5
9C21
331
9C1A
  5
9C1D
331
9BE2
  5
9BE2
331
9C16
  5
9C19
331
9C12
  5
9C15
331
9C0A
  5
9C0D
331
9C06
  5
9C09
331
9C02
  5
9C05
331
9C2D
  5
9C84
331
9C29
  5
9C2C
331
9C25
  5
9C28
331
9C21
  5
9C24
331
9C1D
  5
9C20
331
9C19
  5
9C1C
331
9BE1
  5
9BE1
331
9C15
  5
9C18
331
9C11
  5
9C14
331
9C0D
  5
9C10
331
9C09
  5
9C0C
331
9C05
  5
9C08
331
9C01
  5
9C04
331
9C2C
  5
9C83
331
9C28
  5
9C2B
331
9C24
  5
9C27
331
9C20
  5
9C23
331
9C1C
  5
9C1F
331
9C18
  5
9C1B
331
9C14
  5
9C17
331
9C10
  5
9C13
331
9C0C
  5
9C0F
331
9C08
  5
9C0B
331
9C04
  5
9C07
331
9BFC
  5
9BFF
331
9BF8
  5
9BFB
331
9C2B
  5
9C2E
331
9BF7
  5
9BFA
331
9C27
  5
9C2A
331
9C23
  5
9C26
331
9C1F
  5
9C22
331
9C1B
  5
9C1E
331
9BEB
  5
9BEB
331
9BE3
  5
9BE3
331
9C17
  5
9C1A
331
9C13
  5
9C16
331
9C0F
  5
9C12
331
9C0B
  5
9C0E
331
9C07
  5
9C0A
331
9C03
  5
9C06
331
9BFF
  5
9C03
331
9C2A
  5
9C2D
331
F7
  5
F7
  0
XRECORD
  5
227E
102
{ACAD_REACTORS
330
8AD
102
}
330
8AD
100
AcDbXrecord
280
     1
340
1B
  0
XRECORD
  5
2280
102
{ACAD_REACTORS
330
8AF
102
}
330
8AF
100
AcDbXrecord
280
     1
340
23
  0
XRECORD
  5
9F71
102
{ACAD_REACTORS
330
9F70
102
}
330
9F70
100
AcDbXrecord
280
     1
 40
134184.0
  1
\fＭＳ 明朝|b0|i0|c128|p17;PT1/4"GAUGE下限低0.5mm
  0
XRECORD
  5
9F73
102
{ACAD_REACTORS
330
9F72
102
}
330
9F72
100
AcDbXrecord
280
     1
 40
89792.0
  1
\Ftxt.shx,bigfont.shx|c128;備註：
  0
XRECORD
  5
9F75
102
{ACAD_REACTORS
330
9F74
102
}
330
9F74
100
AcDbXrecord
280
     1
 40
530265.0
  1
\Ftxt.shx,bigfont.shx|c128;\U+5185外球\U+5F84位置須打光1000＃以上\P 
  0
XRECORD
  5
9F77
102
{ACAD_REACTORS
330
9F76
102
}
330
9F76
100
AcDbXrecord
280
     1
 40
589364.0
  1
\Ftxt.shx,bigfont.shx|c128;\U+56F3面供\U+53C2考以2KG水\U+5727不水漏為準\P 
  0
XRECORD
  5
9F79
102
{ACAD_REACTORS
330
9F78
102
}
330
9F78
100
AcDbXrecord
280
     1
 40
360115.0
  1
\Ftxt.shx,bigfont.shx|c128;\U+5185外球\U+5F84真\U+5186度5/100以\U+5185\P 
  0
XRECORD
  5
9F7B
102
{ACAD_REACTORS
330
9F7A
102
}
330
9F7A
100
AcDbXrecord
280
     1
 40
69405.0
  1
\Ftxt.shx,bigfont.shx|c128;小柳
  0
XRECORD
  5
9F7D
102
{ACAD_REACTORS
330
9F7C
102
}
330
9F7C
100
AcDbXrecord
280
     1
 40
246380.0
  1
\Ftxt.shx,bigfont.shx|c128;90%%d\U+30B9\U+30D7\U+30EC\U+30FC\U+30CE\U+30BA\U+30EB
  0
XRECORD
  5
9F7F
102
{ACAD_REACTORS
330
9F7E
102
}
330
9F7E
100
AcDbXrecord
280
     1
 40
134077.0
  1
\Ftxt.shx,bigfont.shx|c128;\U+56F3  面  番  \U+53F7
  0
XRECORD
  5
9F81
102
{ACAD_REACTORS
330
9F80
102
}
330
9F80
100
AcDbXrecord
280
     1
 40
118949.0
  1
\Ftxt.shx,bigfont.shx|c128;新規\U+767A行
  0
XRECORD
  5
9F83
102
{ACAD_REACTORS
330
9F82
102
}
330
9F82
100
AcDbXrecord
280
     1
 40
118583.0
  1
\Ftxt.shx,bigfont.shx|c128;更改\U+5185容
  0
XRECORD
  5
9F85
102
{ACAD_REACTORS
330
9F84
102
}
330
9F84
100
AcDbXrecord
280
     1
 40
188571.0
  1
\Ftxt.shx,bigfont.shx|c128;日機株式\U+4F1A社
  0
XRECORD
  5
9F87
102
{ACAD_REACTORS
330
9F86
102
}
330
9F86
100
AcDbXrecord
280
     1
 40
91655.0
  1
\Ftxt.shx,bigfont.shx|c128;\U+5449銘宏
  0
XRECORD
  5
9F89
102
{ACAD_REACTORS
330
9F88
102
}
330
9F88
100
AcDbXrecord
280
     1
 40
68153.0
  1
\Ftxt.shx,bigfont.shx|c128;日付
  0
XRECORD
  5
9F8B
102
{ACAD_REACTORS
330
9F8A
102
}
330
9F8A
100
AcDbXrecord
280
     1
 40
67140.0
  1
\Ftxt.shx,bigfont.shx|c128;\U+62C5\U+5F53
  0
XRECORD
  5
9F8D
102
{ACAD_REACTORS
330
9F8C
102
}
330
9F8C
100
AcDbXrecord
280
     1
 40
70077.0
  1
\Ftxt.shx,bigfont.shx|c128;製 \U+56F3
  0
XRECORD
  5
9F8F
102
{ACAD_REACTORS
330
9F8E
102
}
330
9F8E
100
AcDbXrecord
280
     1
 40
69783.0
  1
\Ftxt.shx,bigfont.shx|c128;日 付
  0
XRECORD
  5
9F91
102
{ACAD_REACTORS
330
9F90
102
}
330
9F90
100
AcDbXrecord
280
     1
 40
91655.0
  1
\Ftxt.shx,bigfont.shx|c128;\U+5449銘宏
  0
XRECORD
  5
9F93
102
{ACAD_REACTORS
330
9F92
102
}
330
9F92
100
AcDbXrecord
280
     1
 40
370626.0
  1
\Ftxt.shx,bigfont.shx|c128;4.未指示角部\U+306FR0.5\U+3068\U+3059\U+308B\P 
  0
XRECORD
  5
9F95
102
{ACAD_REACTORS
330
9F94
102
}
330
9F94
100
AcDbXrecord
280
     1
 40
545583.0
  1
\Ftxt.shx,bigfont.shx|c128;1.\U+5185外球\U+5F84位置須打光1000＃以上\P 
  0
XRECORD
  5
9F97
102
{ACAD_REACTORS
330
9F96
102
}
330
9F96
100
AcDbXrecord
280
     1
 40
605646.0
  1
\Ftxt.shx,bigfont.shx|c128;2.\U+56F3面供\U+53C2考以2KG水\U+5727不水漏為準\P 
  0
XRECORD
  5
9F99
102
{ACAD_REACTORS
330
9F98
102
}
330
9F98
100
AcDbXrecord
280
     1
 40
89792.0
  1
\Ftxt.shx,bigfont.shx|c128;備註：
  0
XRECORD
  5
9F9B
102
{ACAD_REACTORS
330
9F9A
102
}
330
9F9A
100
AcDbXrecord
280
     1
 40
372609.0
  1
\Ftxt.shx,bigfont.shx|c128;3.\U+5185外球\U+5F84真\U+5186度5/100以\U+5185\P 
  0
XRECORD
  5
9F9D
102
{ACAD_REACTORS
330
9F9C
102
}
330
9F9C
100
AcDbXrecord
280
     1
 40
144192.0
  1
\Ftxt.shx,bigfont.shx|c128;一   般   公   差
  0
XRECORD
  5
9F9F
102
{ACAD_REACTORS
330
9F9E
102
}
330
9F9E
100
AcDbXrecord
280
     1
 40
69669.0
  1
\Ftxt.shx,bigfont.shx|c128;承 認
  0
XRECORD
  5
9FA1
102
{ACAD_REACTORS
330
9FA0
102
}
330
9FA0
100
AcDbXrecord
280
     1
 40
75507.0
  1
\Ftxt.shx,bigfont.shx|c128;寸     法
  0
XRECORD
  5
9FA3
102
{ACAD_REACTORS
330
9FA2
102
}
330
9FA2
100
AcDbXrecord
280
     1
 40
70506.0
  1
\Ftxt.shx,bigfont.shx|c128;\U+691C \U+56F3
  0
XRECORD
  5
9FA5
102
{ACAD_REACTORS
330
9FA4
102
}
330
9FA4
100
AcDbXrecord
280
     1
 40
119970.0
  1
\Ftxt.shx,bigfont.shx|c128;容許公差
  0
XRECORD
  5
9FA7
102
{ACAD_REACTORS
330
9FA6
102
}
330
9FA6
100
AcDbXrecord
280
     1
 40
69783.0
  1
\Ftxt.shx,bigfont.shx|c128;日 付
  0
XRECORD
  5
9FA9
102
{ACAD_REACTORS
330
9FA8
102
}
330
9FA8
100
AcDbXrecord
280
     1
 40
69783.0
  1
\Ftxt.shx,bigfont.shx|c128;日 付
  0
XRECORD
  5
9FAB
102
{ACAD_REACTORS
330
9FAA
102
}
330
9FAA
100
AcDbXrecord
280
     1
 40
72280.0
  1
\Ftxt.shx,bigfont.shx|c128;材 質
  0
XRECORD
  5
9FAD
102
{ACAD_REACTORS
330
9FAC
102
}
330
9FAC
100
AcDbXrecord
280
     1
 40
77996.0
  1
\Ftxt.shx,bigfont.shx|c128;機     種
  0
XRECORD
  5
9FAF
102
{ACAD_REACTORS
330
9FAE
102
}
330
9FAE
100
AcDbXrecord
280
     1
 40
70369.0
  1
\Ftxt.shx,bigfont.shx|c128;尺 度
  0
XRECORD
  5
9FB1
102
{ACAD_REACTORS
330
9FB0
102
}
330
9FB0
100
AcDbXrecord
280
     1
 40
77148.0
  1
\Ftxt.shx,bigfont.shx|c128;品     名
  0
XRECORD
  5
9FB3
102
{ACAD_REACTORS
330
9FB2
102
}
330
9FB2
100
AcDbXrecord
280
     1
 40
128398.0
  1
\Ftxt.shx,bigfont.shx|c128;1/2"\U+30B7\U+30B9\U+30C6\U+30E0
  0
XRECORD
  5
9FB5
102
{ACAD_REACTORS
330
9FB4
102
}
330
9FB4
100
AcDbXrecord
280
     1
 40
177921.0
  1
\Ftxt.shx,bigfont.shx|c128;6.PT1/2 GAUGE下限低0.5mm\P 
  0
XRECORD
  5
9FB7
102
{ACAD_REACTORS
330
9FB6
102
}
330
9FB6
100
AcDbXrecord
280
     1
 40
149799.0
  1
\Ftxt.shx,bigfont.shx|c128;5.PT字体刻印\P 
  0
XRECORD
  5
9FB9
102
{ACAD_REACTORS
330
9FB8
102
}
330
9FB8
100
AcDbXrecord
280
     1
 40
149799.0
  1
\Ftxt.shx,bigfont.shx|c128;5.PT字体刻印\P 
  0
XRECORD
  5
9FBB
102
{ACAD_REACTORS
330
9FBA
102
}
330
9FBA
100
AcDbXrecord
280
     1
 40
2378.0
  1
\U+220516
  0
XRECORD
  5
9FBD
102
{ACAD_REACTORS
330
9FBC
102
}
330
9FBC
100
AcDbXrecord
280
     1
 40
2342.0
  1
\U+220512
  0
XRECORD
  5
9FBF
102
{ACAD_REACTORS
330
9FBE
102
}
330
9FBE
100
AcDbXrecord
280
     1
 40
1956.0
  1
\U+22059
  0
XRECORD
  5
9FC1
102
{ACAD_REACTORS
330
9FC0
102
}
330
9FC0
100
AcDbXrecord
280
     1
 40
3385.0
  1
\U+220512.5
  0
XRECORD
  5
9FC3
102
{ACAD_REACTORS
330
9FC2
102
}
330
9FC2
100
AcDbXrecord
280
     1
 40
2910.0
  1
\U+22059.6
  0
XRECORD
  5
9FC5
102
{ACAD_REACTORS
330
9FC4
102
}
330
9FC4
100
AcDbXrecord
280
     1
 40
1932.0
  1
\U+22056
  0
XRECORD
  5
9FC7
102
{ACAD_REACTORS
330
9FC6
102
}
330
9FC6
100
AcDbXrecord
280
     1
 40
3385.0
  1
\U+220512.5
  0
XRECORD
  5
9FC9
102
{ACAD_REACTORS
330
9FC8
102
}
330
9FC8
100
AcDbXrecord
280
     1
 40
75507.0
  1
\Ftxt.shx,bigfont.shx|c128;寸     法
  0
XRECORD
  5
9FCB
102
{ACAD_REACTORS
330
9FCA
102
}
330
9FCA
100
AcDbXrecord
280
     1
 40
119970.0
  1
\Ftxt.shx,bigfont.shx|c128;容許公差
  0
XRECORD
  5
9FCD
102
{ACAD_REACTORS
330
9FCC
102
}
330
9FCC
100
AcDbXrecord
280
     1
 40
128053.0
  1
\Ftxt.shx,bigfont.shx|c128;JIS B 0405　(中級)
  0
XRECORD
  5
9FCF
102
{ACAD_REACTORS
330
9FCE
102
}
330
9FCE
100
AcDbXrecord
280
     1
 40
144192.0
  1
\Ftxt.shx,bigfont.shx|c128;一   般   公   差
  0
XRECORD
  5
A00A
102
{ACAD_REACTORS
330
A009
102
}
330
A009
100
AcDbXrecord
280
     1
 40
169425.0
  1
1/4"\P{\Ftxt,bigfont|c128;   \U+30B3\U+30CD\U+30AF\U+30BF\~ PT1/8"}
  0
XRECORD
  5
A00C
102
{ACAD_REACTORS
330
A00B
102
}
330
A00B
100
AcDbXrecord
280
     1
 40
188571.0
  1
\Ftxt.shx,bigfont.shx|c128;日機株式\U+4F1A社
  0
XRECORD
  5
A00E
102
{ACAD_REACTORS
330
A00D
102
}
330
A00D
100
AcDbXrecord
280
     1
 40
69783.0
  1
\Ftxt.shx,bigfont.shx|c128;日 付
  0
XRECORD
  5
A010
102
{ACAD_REACTORS
330
A00F
102
}
330
A00F
100
AcDbXrecord
280
     1
 40
70077.0
  1
\Ftxt.shx,bigfont.shx|c128;製 \U+56F3
  0
XRECORD
  5
A012
102
{ACAD_REACTORS
330
A011
102
}
330
A011
100
AcDbXrecord
280
     1
 40
70506.0
  1
\Ftxt.shx,bigfont.shx|c128;\U+691C \U+56F3
  0
XRECORD
  5
A014
102
{ACAD_REACTORS
330
A013
102
}
330
A013
100
AcDbXrecord
280
     1
 40
70369.0
  1
\Ftxt.shx,bigfont.shx|c128;尺 度
  0
XRECORD
  5
A016
102
{ACAD_REACTORS
330
A015
102
}
330
A015
100
AcDbXrecord
280
     1
 40
69669.0
  1
\Ftxt.shx,bigfont.shx|c128;承 認
  0
XRECORD
  5
A018
102
{ACAD_REACTORS
330
A017
102
}
330
A017
100
AcDbXrecord
280
     1
 40
59220.0
  1
{\Ftxt,bigfont|c128;小\~柳}
  0
XRECORD
  5
A01A
102
{ACAD_REACTORS
330
A019
102
}
330
A019
100
AcDbXrecord
280
     1
 40
134077.0
  1
\Ftxt.shx,bigfont.shx|c128;\U+56F3  面  番  \U+53F7
  0
XRECORD
  5
A01C
102
{ACAD_REACTORS
330
A01B
102
}
330
A01B
100
AcDbXrecord
280
     1
 40
71889.0
  1
\Ftxt.shx,bigfont.shx|c128;品  名
  0
XRECORD
  5
A01E
102
{ACAD_REACTORS
330
A01D
102
}
330
A01D
100
AcDbXrecord
280
     1
 40
72032.0
  1
\Ftxt.shx,bigfont.shx|c128;型  番
  0
XRECORD
  5
A020
102
{ACAD_REACTORS
330
A01F
102
}
330
A01F
100
AcDbXrecord
280
     1
 40
68955.0
  1
\Ftxt.shx,bigfont.shx|c128;\U+5909更
  0
LAYOUT
  5
22
102
{ACAD_XDICTIONARY
360
9D43
102
}
102
{ACAD_REACTORS
330
1A
102
}
330
1A
100
AcDbPlotSettings
  1

  2
DWG To PDF.pc3
  4
ISO_full_bleed_A4_(210.00_x_297.00_MM)
  6

 40
0.7937499880790711
 41
0.7937499880790711
 42
0.7937469482421875
 43
0.79376220703125
 44
210.0
 45
297.0
 46
5.206251531839356
 47
2.706243902444953
 48
99.00000000000011
 49
0.0
140
198.0000000000001
141
144.9999999999999
142
1.0
143
0.5
 70
 11940
 72
     1
 73
     0
 74
     4
  7
LIN.ctb
 75
     0
147
2.037327502102689
148
-99.00000000000011
149
0.0
100
AcDbLayout
  1
Model
 70
     1
 71
     0
 10
0.0
 20
0.0
 11
12.0
 21
9.0
 12
0.0
 22
0.0
 32
0.0
 14
0.0
 24
0.0
 34
0.0
 15
0.0
 25
0.0
 35
0.0
146
0.0
 13
0.0
 23
0.0
 33
0.0
 16
1.0
 26
0.0
 36
0.0
 17
0.0
 27
1.0
 37
0.0
 76
     0
330
1F
331
99A9
1001
ACAD_PSEXT
1000
DWG To PDF.pc3
1000
DWG To PDF
1000
檔案
1000

1070
     0
  0
LAYOUT
  5
1E
102
{ACAD_XDICTIONARY
360
9F6B
102
}
102
{ACAD_REACTORS
330
1A
102
}
330
1A
100
AcDbPlotSettings
  1

  2
EPSON Stylus C41 Series
  4

  6

 40
0.0
 41
0.0
 42
0.0
 43
0.0
 44
0.0
 45
0.0
 46
0.0
 47
0.0
 48
0.0
 49
0.0
140
0.0
141
0.0
142
1.0
143
1.0
 70
   688
 72
     0
 73
     0
 74
     5
  7
LIN.ctb
 75
    16
147
1.0
148
0.0
149
0.0
100
AcDbLayout
  1
\U+FF70t\U+FF78m1
 70
     1
 71
     1
 10
0.0
 20
0.0
 11
420.0
 21
297.0
 12
0.0
 22
0.0
 32
0.0
 14
1.000000000000000E+20
 24
1.000000000000000E+20
 34
1.000000000000000E+20
 15
-1.000000000000000E+20
 25
-1.000000000000000E+20
 35
-1.000000000000000E+20
146
0.0
 13
0.0
 23
0.0
 33
0.0
 16
1.0
 26
0.0
 36
0.0
 17
0.0
 27
1.0
 37
0.0
 76
     0
330
1B
  0
LAYOUT
  5
26
102
{ACAD_XDICTIONARY
360
9F6E
102
}
102
{ACAD_REACTORS
330
1A
102
}
330
1A
100
AcDbPlotSettings
  1

  2
EPSON Stylus C41 Series
  4

  6

 40
0.0
 41
0.0
 42
0.0
 43
0.0
 44
0.0
 45
0.0
 46
0.0
 47
0.0
 48
0.0
 49
0.0
140
0.0
141
0.0
142
1.0
143
1.0
 70
   688
 72
     0
 73
     0
 74
     5
  7
LIN.ctb
 75
    16
147
1.0
148
0.0
149
0.0
100
AcDbLayout
  1
\U+FF70t\U+FF78m2
 70
     1
 71
     2
 10
0.0
 20
0.0
 11
12.0
 21
9.0
 12
0.0
 22
0.0
 32
0.0
 14
0.0
 24
0.0
 34
0.0
 15
0.0
 25
0.0
 35
0.0
146
0.0
 13
0.0
 23
0.0
 33
0.0
 16
1.0
 26
0.0
 36
0.0
 17
0.0
 27
1.0
 37
0.0
 76
     0
330
23
  0
MATERIAL
  5
99B5
102
{ACAD_XDICTIONARY
360
99B6
102
}
102
{ACAD_REACTORS
330
973E
102
}
330
973E
100
AcDbMaterial
  1
ByBlock
 72
     0
 43
0.0008202099737533
 43
0.0
 43
0.0
 43
0.0
 43
0.0
 43
0.0008202099737533
 43
0.0
 43
0.0
 43
0.0
 43
0.0
 43
1.0
 43
0.0
 43
0.0
 43
0.0
 43
0.0
 43
1.0
 77
     0
 47
0.0008202099737533
 47
0.0
 47
0.0
 47
0.0
 47
0.0
 47
0.0008202099737533
 47
0.0
 47
0.0
 47
0.0
 47
0.0
 47
1.0
 47
0.0
 47
0.0
 47
0.0
 47
0.0
 47
1.0
171
     0
 49
0.0008202099737533
 49
0.0
 49
0.0
 49
0.0
 49
0.0
 49
0.0008202099737533
 49
0.0
 49
0.0
 49
0.0
 49
0.0
 49
1.0
 49
0.0
 49
0.0
 49
0.0
 49
0.0
 49
1.0
175
     0
142
0.0008202099737533
142
0.0
142
0.0
142
0.0
142
0.0
142
0.0008202099737533
142
0.0
142
0.0
142
0.0
142
0.0
142
1.0
142
0.0
142
0.0
142
0.0
142
0.0
142
1.0
179
     0
144
0.0008202099737533
144
0.0
144
0.0
144
0.0
144
0.0
144
0.0008202099737533
144
0.0
144
0.0
144
0.0
144
0.0
144
1.0
144
0.0
144
0.0
144
0.0
144
0.0
144
1.0
147
0.0008202099737533
147
0.0
147
0.0
147
0.0
147
0.0
147
0.0008202099737533
147
0.0
147
0.0
147
0.0
147
0.0
147
1.0
147
0.0
147
0.0
147
0.0
147
0.0
147
1.0
  0
MATERIAL
  5
99AD
102
{ACAD_XDICTIONARY
360
99AE
102
}
102
{ACAD_REACTORS
330
973E
102
}
330
973E
100
AcDbMaterial
  1
ByLayer
 72
     0
 43
0.0008202099737533
 43
0.0
 43
0.0
 43
0.0
 43
0.0
 43
0.0008202099737533
 43
0.0
 43
0.0
 43
0.0
 43
0.0
 43
1.0
 43
0.0
 43
0.0
 43
0.0
 43
0.0
 43
1.0
 77
     0
 47
0.0008202099737533
 47
0.0
 47
0.0
 47
0.0
 47
0.0
 47
0.0008202099737533
 47
0.0
 47
0.0
 47
0.0
 47
0.0
 47
1.0
 47
0.0
 47
0.0
 47
0.0
 47
0.0
 47
1.0
171
     0
 49
0.0008202099737533
 49
0.0
 49
0.0
 49
0.0
 49
0.0
 49
0.0008202099737533
 49
0.0
 49
0.0
 49
0.0
 49
0.0
 49
1.0
 49
0.0
 49
0.0
 49
0.0
 49
0.0
 49
1.0
175
     0
142
0.0008202099737533
142
0.0
142
0.0
142
0.0
142
0.0
142
0.0008202099737533
142
0.0
142
0.0
142
0.0
142
0.0
142
1.0
142
0.0
142
0.0
142
0.0
142
0.0
142
1.0
179
     0
144
0.0008202099737533
144
0.0
144
0.0
144
0.0
144
0.0
144
0.0008202099737533
144
0.0
144
0.0
144
0.0
144
0.0
144
1.0
144
0.0
144
0.0
144
0.0
144
0.0
144
1.0
147
0.0008202099737533
147
0.0
147
0.0
147
0.0
147
0.0
147
0.0008202099737533
147
0.0
147
0.0
147
0.0
147
0.0
147
1.0
147
0.0
147
0.0
147
0.0
147
0.0
147
1.0
  0
MATERIAL
  5
99BD
102
{ACAD_XDICTIONARY
360
99BE
102
}
102
{ACAD_REACTORS
330
973E
102
}
330
973E
100
AcDbMaterial
  1
Global
 72
     0
 43
0.0008202099737533
 43
0.0
 43
0.0
 43
0.0
 43
0.0
 43
0.0008202099737533
 43
0.0
 43
0.0
 43
0.0
 43
0.0
 43
1.0
 43
0.0
 43
0.0
 43
0.0
 43
0.0
 43
1.0
 77
     0
 47
0.0008202099737533
 47
0.0
 47
0.0
 47
0.0
 47
0.0
 47
0.0008202099737533
 47
0.0
 47
0.0
 47
0.0
 47
0.0
 47
1.0
 47
0.0
 47
0.0
 47
0.0
 47
0.0
 47
1.0
171
     0
 49
0.0008202099737533
 49
0.0
 49
0.0
 49
0.0
 49
0.0
 49
0.0008202099737533
 49
0.0
 49
0.0
 49
0.0
 49
0.0
 49
1.0
 49
0.0
 49
0.0
 49
0.0
 49
0.0
 49
1.0
175
     0
142
0.0008202099737533
142
0.0
142
0.0
142
0.0
142
0.0
142
0.0008202099737533
142
0.0
142
0.0
142
0.0
142
0.0
142
1.0
142
0.0
142
0.0
142
0.0
142
0.0
142
1.0
179
     0
144
0.0008202099737533
144
0.0
144
0.0
144
0.0
144
0.0
144
0.0008202099737533
144
0.0
144
0.0
144
0.0
144
0.0
144
1.0
144
0.0
144
0.0
144
0.0
144
0.0
144
1.0
147
0.0008202099737533
147
0.0
147
0.0
147
0.0
147
0.0
147
0.0008202099737533
147
0.0
147
0.0
147
0.0
147
0.0
147
1.0
147
0.0
147
0.0
147
0.0
147
0.0
147
1.0
  0
MLEADERSTYLE
  5
99F1
102
{ACAD_REACTORS
330
99F0
102
}
330
99F0
100
AcDbMLeaderStyle
170
     2
171
     1
172
     0
 90
        2
 40
0.0
 41
0.0
173
     1
 91
-1056964608
340
14
 92
       -2
290
     1
 42
2.0
291
     1
 43
0.36
  3
Standard
 44
4.0
300

342
11
174
     1
178
     6
175
     1
176
     0
 93
-1056964608
 45
4.0
292
     0
297
     0
 46
4.0
 94
-1056964608
 47
1.0
 49
1.0
140
1.0
293
     1
141
0.0
294
     1
177
     0
142
1.0
295
     0
296
     0
143
0.125
1001
ACAD_MLEADERVER
1070
     2
  0
MLINESTYLE
  5
18
102
{ACAD_REACTORS
330
17
102
}
330
17
100
AcDbMlineStyle
  2
STANDARD
 70
     0
  3

 62
   256
 51
90.0
 52
90.0
 71
     2
 49
0.5
 62
   256
  6
BYLAYER
 49
-0.5
 62
   256
  6
BYLAYER
  0
ACDBPLACEHOLDER
  5
F
102
{ACAD_REACTORS
330
E
102
}
330
E
  0
SCALE
  5
99DF
102
{ACAD_REACTORS
330
99DE
102
}
330
99DE
100
AcDbScale
 70
     0
300
1:1
140
1.0
141
1.0
290
     1
  0
SCALE
  5
99E0
102
{ACAD_REACTORS
330
99DE
102
}
330
99DE
100
AcDbScale
 70
     0
300
1:2
140
1.0
141
2.0
290
     0
  0
SCALE
  5
99E1
102
{ACAD_REACTORS
330
99DE
102
}
330
99DE
100
AcDbScale
 70
     0
300
1:4
140
1.0
141
4.0
290
     0
  0
SCALE
  5
99E2
102
{ACAD_REACTORS
330
99DE
102
}
330
99DE
100
AcDbScale
 70
     0
300
1:5
140
1.0
141
5.0
290
     0
  0
SCALE
  5
99E3
102
{ACAD_REACTORS
330
99DE
102
}
330
99DE
100
AcDbScale
 70
     0
300
1:8
140
1.0
141
8.0
290
     0
  0
SCALE
  5
99E4
102
{ACAD_REACTORS
330
99DE
102
}
330
99DE
100
AcDbScale
 70
     0
300
1:10
140
1.0
141
10.0
290
     0
  0
SCALE
  5
99E5
102
{ACAD_REACTORS
330
99DE
102
}
330
99DE
100
AcDbScale
 70
     0
300
1:16
140
1.0
141
16.0
290
     0
  0
SCALE
  5
99E6
102
{ACAD_REACTORS
330
99DE
102
}
330
99DE
100
AcDbScale
 70
     0
300
1:20
140
1.0
141
20.0
290
     0
  0
SCALE
  5
99E7
102
{ACAD_REACTORS
330
99DE
102
}
330
99DE
100
AcDbScale
 70
     0
300
1:30
140
1.0
141
30.0
290
     0
  0
SCALE
  5
99E8
102
{ACAD_REACTORS
330
99DE
102
}
330
99DE
100
AcDbScale
 70
     0
300
1:40
140
1.0
141
40.0
290
     0
  0
SCALE
  5
99E9
102
{ACAD_REACTORS
330
99DE
102
}
330
99DE
100
AcDbScale
 70
     0
300
1:50
140
1.0
141
50.0
290
     0
  0
SCALE
  5
99EA
102
{ACAD_REACTORS
330
99DE
102
}
330
99DE
100
AcDbScale
 70
     0
300
1:100
140
1.0
141
100.0
290
     0
  0
SCALE
  5
99EB
102
{ACAD_REACTORS
330
99DE
102
}
330
99DE
100
AcDbScale
 70
     0
300
2:1
140
2.0
141
1.0
290
     0
  0
SCALE
  5
99EC
102
{ACAD_REACTORS
330
99DE
102
}
330
99DE
100
AcDbScale
 70
     0
300
4:1
140
4.0
141
1.0
290
     0
  0
SCALE
  5
99ED
102
{ACAD_REACTORS
330
99DE
102
}
330
99DE
100
AcDbScale
 70
     0
300
8:1
140
8.0
141
1.0
290
     0
  0
SCALE
  5
99EE
102
{ACAD_REACTORS
330
99DE
102
}
330
99DE
100
AcDbScale
 70
     0
300
10:1
140
10.0
141
1.0
290
     0
  0
SCALE
  5
99EF
102
{ACAD_REACTORS
330
99DE
102
}
330
99DE
100
AcDbScale
 70
     0
300
100:1
140
100.0
141
1.0
290
     0
  0
TABLESTYLE
  5
9741
102
{ACAD_XDICTIONARY
360
9F67
102
}
102
{ACAD_REACTORS
330
9740
102
}
330
9740
100
AcDbTableStyle
  3
Standard
 70
     0
 71
     0
 40
1.5
 41
1.5
280
     0
281
     0
  7
Standard
140
4.5
170
     2
 62
     0
 63
     7
283
     0
274
    -2
284
     1
 64
     0
275
    -2
285
     1
 65
     0
276
    -2
286
     1
 66
     0
277
    -2
287
     1
 67
     0
278
    -2
288
     1
 68
     0
279
    -2
289
     1
 69
     0
  7
Standard
140
6.0
170
     5
 62
     0
 63
     7
283
     0
274
    -2
284
     1
 64
     0
275
    -2
285
     1
 65
     0
276
    -2
286
     1
 66
     0
277
    -2
287
     1
 67
     0
278
    -2
288
     1
 68
     0
279
    -2
289
     1
 69
     0
  7
Standard
140
4.5
170
     5
 62
     0
 63
     7
283
     0
274
    -2
284
     1
 64
     0
275
    -2
285
     1
 65
     0
276
    -2
286
     1
 66
     0
277
    -2
287
     1
 67
     0
278
    -2
288
     1
 68
     0
279
    -2
289
     1
 69
     0
  0
VISUALSTYLE
  5
99CB
102
{ACAD_XDICTIONARY
360
9FDE
102
}
102
{ACAD_REACTORS
330
99C5
102
}
330
99C5
100
AcDbVisualStyle
  2
2dWireframe
 70
     4
 71
     0
 72
     2
 73
     0
 90
        0
 40
-0.6
 41
-30.0
 62
     5
 63
     7
 74
     1
 91
        4
 64
     7
 65
   257
 75
     1
175
     1
 42
1.0
 92
        0
 66
   257
 43
1.0
 76
     1
 77
     6
 78
     2
 67
     7
 79
     5
170
     0
171
     0
290
     0
174
     0
 93
        1
 44
0.0
173
     0
291
     0
 45
0.0
1001
ACAD
1000
AcDbSavedByObjectVersion
1070
     0
  0
VISUALSTYLE
  5
99CA
102
{ACAD_XDICTIONARY
360
9FDC
102
}
102
{ACAD_REACTORS
330
99C5
102
}
330
99C5
100
AcDbVisualStyle
  2
Basic
 70
     7
 71
     1
 72
     0
 73
     1
 90
        0
 40
-0.6
 41
-30.0
 62
     5
 63
     7
 74
     0
 91
        4
 64
     7
 65
   257
 75
     1
175
     1
 42
1.0
 92
        8
 66
     7
 43
1.0
 76
     1
 77
     6
 78
     2
 67
     7
 79
     5
170
     0
171
     0
290
     0
174
     0
 93
        1
 44
0.0
173
     0
291
     1
 45
0.0
1001
ACAD
1000
AcDbSavedByObjectVersion
1070
     0
  0
VISUALSTYLE
  5
99D1
102
{ACAD_XDICTIONARY
360
9FEA
102
}
102
{ACAD_REACTORS
330
99C5
102
}
330
99C5
100
AcDbVisualStyle
  2
Brighten
 70
    12
 71
     2
 72
     2
 73
     0
 90
        0
 40
-0.6
 41
-30.0
 62
     5
 63
     7
 74
     1
 91
        4
 64
     7
 65
   257
 75
     1
175
     1
 42
1.0
 92
        8
 66
     7
 43
1.0
 76
     1
 77
     6
 78
     2
 67
     7
 79
     5
170
     0
171
     0
290
     0
174
     0
 93
        1
 44
50.0
173
     0
291
     1
 45
0.0
1001
ACAD
1000
AcDbSavedByObjectVersion
1070
     0
  0
VISUALSTYLE
  5
99D5
102
{ACAD_XDICTIONARY
360
9FF2
102
}
102
{ACAD_REACTORS
330
99C5
102
}
330
99C5
100
AcDbVisualStyle
  2
ColorChange
 70
    16
 71
     2
 72
     2
 73
     3
 90
        0
 40
-0.6
 41
-30.0
 62
     5
 63
     8
 74
     1
 91
        4
 64
     7
 65
   257
 75
     1
175
     1
 42
1.0
 92
        8
 66
     8
 43
1.0
 76
     1
 77
     6
 78
     2
 67
     7
 79
     5
170
     0
171
     0
290
     0
174
     0
 93
        1
 44
0.0
173
     0
291
     1
 45
0.0
1001
ACAD
1000
AcDbSavedByObjectVersion
1070
     0
  0
VISUALSTYLE
  5
99CE
102
{ACAD_XDICTIONARY
360
9FE4
102
}
102
{ACAD_REACTORS
330
99C5
102
}
330
99C5
100
AcDbVisualStyle
  2
Conceptual
 70
     9
 71
     3
 72
     2
 73
     0
 90
        0
 40
-0.6
 41
-30.0
 62
     5
 63
     7
 74
     2
 91
        2
 64
     7
 65
   257
 75
     1
175
     1
 42
179.0
 92
        8
 66
     7
 43
1.0
 76
     1
 77
     6
 78
     2
 67
     7
 79
     3
170
     0
171
     0
290
     0
174
     0
 93
        1
 44
0.0
173
     0
291
     0
 45
0.0
1001
ACAD
1000
AcDbSavedByObjectVersion
1070
     0
  0
VISUALSTYLE
  5
99D0
102
{ACAD_XDICTIONARY
360
9FE8
102
}
102
{ACAD_REACTORS
330
99C5
102
}
330
99C5
100
AcDbVisualStyle
  2
Dim
 70
    11
 71
     2
 72
     2
 73
     0
 90
        0
 40
-0.6
 41
-30.0
 62
     5
 63
     7
 74
     1
 91
        4
 64
     7
 65
   257
 75
     1
175
     1
 42
1.0
 92
        8
 66
     7
 43
1.0
 76
     1
 77
     6
 78
     2
 67
     7
 79
     5
170
     0
171
     0
290
     0
174
     0
 93
        1
 44
-50.0
173
     0
291
     1
 45
0.0
1001
ACAD
1000
AcDbSavedByObjectVersion
1070
     0
  0
VISUALSTYLE
  5
99DD
102
{ACAD_XDICTIONARY
360
A002
102
}
102
{ACAD_REACTORS
330
99C5
102
}
330
99C5
100
AcDbVisualStyle
  2
EdgeColorOff
 70
    22
 71
     2
 72
     2
 73
     0
 90
        0
 40
-0.6
 41
-30.0
 62
     5
 63
     7
 74
     1
 91
        4
 64
     7
 65
   257
 75
     1
175
     1
 42
1.0
 92
        8
 66
     7
 43
1.0
 76
     1
 77
     6
 78
     2
 67
     7
 79
     5
170
     0
171
     0
290
     0
174
     0
 93
        1
 44
0.0
173
     0
291
     1
 45
0.0
1001
ACAD
1000
AcDbSavedByObjectVersion
1070
     0
  0
VISUALSTYLE
  5
99D4
102
{ACAD_XDICTIONARY
360
9FF0
102
}
102
{ACAD_REACTORS
330
99C5
102
}
330
99C5
100
AcDbVisualStyle
  2
Facepattern
 70
    15
 71
     2
 72
     2
 73
     0
 90
        0
 40
-0.6
 41
-30.0
 62
     5
 63
     7
 74
     1
 91
        4
 64
     7
 65
   257
 75
     1
175
     1
 42
1.0
 92
        8
 66
     7
 43
1.0
 76
     1
 77
     6
 78
     2
 67
     7
 79
     5
170
     0
171
     0
290
     0
174
     0
 93
        1
 44
0.0
173
     0
291
     1
 45
0.0
1001
ACAD
1000
AcDbSavedByObjectVersion
1070
     0
  0
VISUALSTYLE
  5
99C6
102
{ACAD_XDICTIONARY
360
9FD4
102
}
102
{ACAD_REACTORS
330
99C5
102
}
330
99C5
100
AcDbVisualStyle
  2
Flat
 70
     0
 71
     2
 72
     1
 73
     1
 90
        2
 40
-0.6
 41
30.0
 62
     5
 63
     7
 74
     0
 91
        0
 64
     7
 65
   257
 75
     1
175
     1
 42
1.0
 92
        8
 66
     7
 43
1.0
 76
     1
 77
     6
 78
     2
 67
     7
 79
     5
170
     0
171
     0
290
     0
174
     0
 93
       13
 44
0.0
173
     0
291
     1
 45
0.0
1001
ACAD
1000
AcDbSavedByObjectVersion
1070
     0
  0
VISUALSTYLE
  5
99C7
102
{ACAD_XDICTIONARY
360
9FD6
102
}
102
{ACAD_REACTORS
330
99C5
102
}
330
99C5
100
AcDbVisualStyle
  2
FlatWithEdges
 70
     1
 71
     2
 72
     1
 73
     1
 90
        2
 40
-0.6
 41
30.0
 62
     5
 63
     7
 74
     1
 91
        0
 64
     7
 65
   257
 75
     1
175
     1
 42
1.0
 92
        0
 66
   257
 43
1.0
 76
     1
 77
     6
 78
     2
 67
     7
 79
     5
170
     0
171
     0
290
     0
174
     0
 93
       13
 44
0.0
173
     0
291
     1
 45
0.0
1001
ACAD
1000
AcDbSavedByObjectVersion
1070
     0
  0
VISUALSTYLE
  5
99C8
102
{ACAD_XDICTIONARY
360
9FD8
102
}
102
{ACAD_REACTORS
330
99C5
102
}
330
99C5
100
AcDbVisualStyle
  2
Gouraud
 70
     2
 71
     2
 72
     2
 73
     1
 90
        2
 40
-0.6
 41
30.0
 62
     5
 63
     7
 74
     0
 91
        0
 64
     7
 65
   257
 75
     1
175
     1
 42
1.0
 92
        0
 66
     7
 43
1.0
 76
     1
 77
     6
 78
     2
 67
     7
 79
     5
170
     0
171
     0
290
     0
174
     0
 93
       13
 44
0.0
173
     0
291
     1
 45
0.0
1001
ACAD
1000
AcDbSavedByObjectVersion
1070
     0
  0
VISUALSTYLE
  5
99C9
102
{ACAD_XDICTIONARY
360
9FDA
102
}
102
{ACAD_REACTORS
330
99C5
102
}
330
99C5
100
AcDbVisualStyle
  2
GouraudWithEdges
 70
     3
 71
     2
 72
     2
 73
     1
 90
        2
 40
-0.6
 41
30.0
 62
     5
 63
     7
 74
     1
 91
        0
 64
     7
 65
   257
 75
     1
175
     1
 42
1.0
 92
        0
 66
   257
 43
1.0
 76
     1
 77
     6
 78
     2
 67
     7
 79
     5
170
     0
171
     0
290
     0
174
     0
 93
       13
 44
0.0
173
     0
291
     1
 45
0.0
1001
ACAD
1000
AcDbSavedByObjectVersion
1070
     0
  0
VISUALSTYLE
  5
99CD
102
{ACAD_XDICTIONARY
360
9FE2
102
}
102
{ACAD_REACTORS
330
99C5
102
}
330
99C5
100
AcDbVisualStyle
  2
Hidden
 70
     6
 71
     1
 72
     2
 73
     2
 90
        0
 40
-0.6
 41
-30.0
 62
     5
 63
     7
 74
     2
 91
        2
 64
     7
 65
   257
 75
     2
175
     1
 42
40.0
 92
        0
 66
   257
 43
1.0
 76
     1
 77
     6
 78
     2
 67
     7
 79
     3
170
     0
171
     0
290
     0
174
     0
 93
        1
 44
0.0
173
     0
291
     0
 45
0.0
1001
ACAD
1000
AcDbSavedByObjectVersion
1070
     0
  0
VISUALSTYLE
  5
99DB
102
{ACAD_XDICTIONARY
360
9FFE
102
}
102
{ACAD_REACTORS
330
99C5
102
}
330
99C5
100
AcDbVisualStyle
  2
JitterOff
 70
    20
 71
     2
 72
     2
 73
     0
 90
        0
 40
-0.6
 41
-30.0
 62
     5
 63
     7
 74
     1
 91
        4
 64
     7
 65
   257
 75
     1
175
     1
 42
1.0
 92
       10
 66
     7
 43
1.0
 76
     1
 77
     6
 78
     2
 67
     7
 79
     5
170
     0
171
     0
290
     0
174
     0
 93
        1
 44
0.0
173
     0
291
     1
 45
0.0
1001
ACAD
1000
AcDbSavedByObjectVersion
1070
     0
  0
VISUALSTYLE
  5
99D3
102
{ACAD_XDICTIONARY
360
9FEE
102
}
102
{ACAD_REACTORS
330
99C5
102
}
330
99C5
100
AcDbVisualStyle
  2
Linepattern
 70
    14
 71
     2
 72
     2
 73
     0
 90
        0
 40
-0.6
 41
-30.0
 62
     5
 63
     7
 74
     1
 91
        4
 64
     7
 65
   257
 75
     7
175
     7
 42
1.0
 92
        8
 66
     7
 43
1.0
 76
     1
 77
     6
 78
     2
 67
     7
 79
     5
170
     0
171
     0
290
     0
174
     0
 93
        1
 44
0.0
173
     0
291
     1
 45
0.0
1001
ACAD
1000
AcDbSavedByObjectVersion
1070
     0
  0
VISUALSTYLE
  5
99DC
102
{ACAD_XDICTIONARY
360
A000
102
}
102
{ACAD_REACTORS
330
99C5
102
}
330
99C5
100
AcDbVisualStyle
  2
OverhangOff
 70
    21
 71
     2
 72
     2
 73
     0
 90
        0
 40
-0.6
 41
-30.0
 62
     5
 63
     7
 74
     1
 91
        4
 64
     7
 65
   257
 75
     1
175
     1
 42
1.0
 92
        9
 66
     7
 43
1.0
 76
     1
 77
     6
 78
     2
 67
     7
 79
     5
170
     0
171
     0
290
     0
174
     0
 93
        1
 44
0.0
173
     0
291
     1
 45
0.0
1001
ACAD
1000
AcDbSavedByObjectVersion
1070
     0
  0
VISUALSTYLE
  5
99CF
102
{ACAD_XDICTIONARY
360
9FE6
102
}
102
{ACAD_REACTORS
330
99C5
102
}
330
99C5
100
AcDbVisualStyle
  2
Realistic
 70
     8
 71
     2
 72
     3
 73
     0
 90
        2
 40
-0.6
 41
30.0
 62
     5
 63
     7
 74
     0
 91
        0
 64
     7
 65
   257
 75
     1
175
     1
 42
1.0
 92
        8
 66
   257
 43
1.0
 76
     1
 77
     6
 78
     2
 67
     7
 79
     3
170
     0
171
     0
290
     0
174
     0
 93
       13
 44
0.0
173
     0
291
     0
 45
0.0
1001
ACAD
1000
AcDbSavedByObjectVersion
1070
     0
  0
VISUALSTYLE
  5
99DA
102
{ACAD_XDICTIONARY
360
9FFC
102
}
102
{ACAD_REACTORS
330
99C5
102
}
330
99C5
100
AcDbVisualStyle
  2
Shaded
 70
    27
 71
     2
 72
     2
 73
     1
 90
        2
 40
-0.6
 41
30.0
 62
     5
 63
     7
 74
     0
 91
        4
 64
     7
 65
   257
 75
     1
175
     1
 42
1.0
 92
        8
 66
   257
 43
1.0
 76
     1
 77
     6
 78
     2
 67
     8
 79
     3
170
     0
171
     0
290
     0
174
     0
 93
        5
 44
0.0
173
     0
291
     0
 45
0.0
1001
ACAD
1000
AcDbSavedByObjectVersion
1070
     0
  0
VISUALSTYLE
  5
99D9
102
{ACAD_XDICTIONARY
360
9FFA
102
}
102
{ACAD_REACTORS
330
99C5
102
}
330
99C5
100
AcDbVisualStyle
  2
Shaded with edges
 70
    26
 71
     2
 72
     2
 73
     1
 90
        2
 40
-0.6
 41
30.0
 62
     5
 63
     7
 74
     1
 91
       10
 64
     7
 65
   257
 75
     2
175
     1
 42
1.0
 92
        8
 66
   257
 43
1.0
 76
     1
 77
     6
 78
     2
 67
     7
 79
     3
170
     0
171
     0
290
     0
174
     0
 93
        5
 44
0.0
173
     0
291
     0
 45
0.0
1001
ACAD
1000
AcDbSavedByObjectVersion
1070
     0
  0
VISUALSTYLE
  5
99D6
102
{ACAD_XDICTIONARY
360
9FF4
102
}
102
{ACAD_REACTORS
330
99C5
102
}
330
99C5
100
AcDbVisualStyle
  2
Shades of Gray
 70
    23
 71
     2
 72
     2
 73
     3
 90
        0
 40
-0.6
 41
-30.0
 62
     5
 63
     7
 74
     2
 91
        2
 64
     7
 65
     7
 75
     1
175
     1
 42
40.0
 92
        8
 66
     7
 43
1.0
 76
     1
 77
     6
 78
     2
 67
     7
 79
     3
170
     0
171
     0
290
     0
174
     0
 93
        1
 44
0.0
173
     0
291
     0
 45
0.0
1001
ACAD
1000
AcDbSavedByObjectVersion
1070
     0
  0
VISUALSTYLE
  5
99D7
102
{ACAD_XDICTIONARY
360
9FF6
102
}
102
{ACAD_REACTORS
330
99C5
102
}
330
99C5
100
AcDbVisualStyle
  2
Sketchy
 70
    24
 71
     1
 72
     2
 73
     2
 90
        0
 40
-0.6
 41
-30.0
 62
     5
 63
     7
 74
     2
 91
        2
 64
     7
 65
     7
 75
     1
175
     1
 42
40.0
 92
       11
 66
     7
 43
1.0
 76
     1
 77
     6
 78
     2
 67
     7
 79
     6
170
     0
171
     0
290
     0
174
     0
 93
        1
 44
0.0
173
     0
291
     0
 45
0.0
1001
ACAD
1000
AcDbSavedByObjectVersion
1070
     0
  0
VISUALSTYLE
  5
99D2
102
{ACAD_XDICTIONARY
360
9FEC
102
}
102
{ACAD_REACTORS
330
99C5
102
}
330
99C5
100
AcDbVisualStyle
  2
Thicken
 70
    13
 71
     2
 72
     2
 73
     0
 90
        0
 40
-0.6
 41
-30.0
 62
     5
 63
     7
 74
     1
 91
        4
 64
     7
 65
   257
 75
     1
175
     1
 42
1.0
 92
       12
 66
     7
 43
1.0
 76
     1
 77
     6
 78
     2
 67
     7
 79
     5
170
     0
171
     0
290
     0
174
     0
 93
        1
 44
0.0
173
     0
291
     1
 45
0.0
1001
ACAD
1000
AcDbSavedByObjectVersion
1070
     0
  0
VISUALSTYLE
  5
99CC
102
{ACAD_XDICTIONARY
360
9FE0
102
}
102
{ACAD_REACTORS
330
99C5
102
}
330
99C5
100
AcDbVisualStyle
  2
Wireframe
 70
     5
 71
     0
 72
     2
 73
     0
 90
        0
 40
-0.6
 41
-30.0
 62
     5
 63
     7
 74
     1
 91
        4
 64
     7
 65
   257
 75
     1
175
     1
 42
1.0
 92
        0
 66
   257
 43
1.0
 76
     1
 77
     6
 78
     2
 67
     7
 79
     3
170
     0
171
     0
290
     0
174
     0
 93
        1
 44
0.0
173
     0
291
     0
 45
0.0
1001
ACAD
1000
AcDbSavedByObjectVersion
1070
     0
  0
VISUALSTYLE
  5
99D8
102
{ACAD_XDICTIONARY
360
9FF8
102
}
102
{ACAD_REACTORS
330
99C5
102
}
330
99C5
100
AcDbVisualStyle
  2
X-Ray
 70
    25
 71
     2
 72
     2
 73
     1
 90
        1
 40
0.5
 41
-30.0
 62
     5
 63
     7
 74
     1
 91
        0
 64
     7
 65
   257
 75
     1
175
     1
 42
1.0
 92
        8
 66
     7
 43
1.0
 76
     1
 77
     6
 78
     2
 67
     7
 79
     3
170
     0
171
     0
290
     0
174
     0
 93
       13
 44
0.0
173
     0
291
     0
 45
0.0
1001
ACAD
1000
AcDbSavedByObjectVersion
1070
     0
  0
DICTIONARYVAR
  5
9D47
102
{ACAD_REACTORS
330
74C
102
}
330
74C
100
DictionaryVariables
280
     0
  1
1:1
  0
DICTIONARYVAR
  5
9D45
102
{ACAD_REACTORS
330
74C
102
}
330
74C
100
DictionaryVariables
280
     0
  1
STANDARD
  0
DICTIONARYVAR
  5
98AF
102
{ACAD_REACTORS
330
74C
102
}
330
74C
100
DictionaryVariables
280
     0
  1
STANDARD
  0
DICTIONARYVAR
  5
9F66
102
{ACAD_REACTORS
330
74C
102
}
330
74C
100
DictionaryVariables
280
     0
  1
1
  0
DICTIONARYVAR
  5
9F64
102
{ACAD_REACTORS
330
74C
102
}
330
74C
100
DictionaryVariables
280
     0
  1
0
  0
DICTIONARYVAR
  5
9D49
102
{ACAD_REACTORS
330
74C
102
}
330
74C
100
DictionaryVariables
280
     0
  1
1
  0
DICTIONARYVAR
  5
9D4A
102
{ACAD_REACTORS
330
74C
102
}
330
74C
100
DictionaryVariables
280
     0
  1
15
  0
DICTIONARYVAR
  5
9D48
102
{ACAD_REACTORS
330
74C
102
}
330
74C
100
DictionaryVariables
280
     0
  1
0
  0
DICTIONARYVAR
  5
9D46
102
{ACAD_REACTORS
330
74C
102
}
330
74C
100
DictionaryVariables
280
     0
  1
0
  0
DICTIONARYVAR
  5
74D
102
{ACAD_REACTORS
330
74C
102
}
330
74C
100
DictionaryVariables
280
     0
  1
96
  0
DICTIONARYVAR
  5
9F65
102
{ACAD_REACTORS
330
74C
102
}
330
74C
100
DictionaryVariables
280
     0
  1
0
  0
DICTIONARY
  5
9A50
102
{ACAD_REACTORS
330
9A47
102
}
330
9A47
100
AcDbDictionary
281
     1
  0
XRECORD
  5
150
102
{ACAD_REACTORS
330
14E
102
}
330
14E
100
AcDbXrecord
280
     1
  0
DICTIONARY
  5
9D43
330
22
100
AcDbDictionary
280
     1
281
     1
  3
ACAD_XREC_ROUNDTRIP
360
9F6D
  3
ADSK_XREC_LAYOUTTHUMBNAIL
360
9D44
  0
DICTIONARY
  5
9F6B
330
1E
100
AcDbDictionary
280
     1
281
     1
  3
ACAD_XREC_ROUNDTRIP
360
9F6C
  0
DICTIONARY
  5
9F6E
330
26
100
AcDbDictionary
280
     1
281
     1
  3
ACAD_XREC_ROUNDTRIP
360
9F6F
  0
DICTIONARY
  5
99B6
330
99B5
100
AcDbDictionary
280
     1
281
     1
  3
ACAD_XREC_ROUNDTRIP
360
9FD2
  3
BUMPTILE
360
99B8
  3
DIFFUSETILE
360
99B7
  3
OPACITYTILE
360
99BB
  3
REFLECTIONTILE
360
99BA
  3
REFRACTIONTILE
360
99BC
  3
SPECULARTILE
360
99B9
  0
DICTIONARY
  5
99AE
330
99AD
100
AcDbDictionary
280
     1
281
     1
  3
ACAD_XREC_ROUNDTRIP
360
9FD1
  3
BUMPTILE
360
99B0
  3
DIFFUSETILE
360
99AF
  3
OPACITYTILE
360
99B3
  3
REFLECTIONTILE
360
99B2
  3
REFRACTIONTILE
360
99B4
  3
SPECULARTILE
360
99B1
  0
DICTIONARY
  5
99BE
330
99BD
100
AcDbDictionary
280
     1
281
     1
  3
ACAD_XREC_ROUNDTRIP
360
9FD3
  3
BUMPTILE
360
99C0
  3
DIFFUSETILE
360
99BF
  3
OPACITYTILE
360
99C3
  3
REFLECTIONTILE
360
99C2
  3
REFRACTIONTILE
360
99C4
  3
SPECULARTILE
360
99C1
  0
DICTIONARY
  5
9F67
330
9741
100
AcDbDictionary
280
     1
281
     1
  3
ACAD_ROUNDTRIP_2008_TABLESTYLE_CELLSTYLEMAP
360
9F68
  3
ACAD_XREC_ROUNDTRIP
360
9FD0
  0
DICTIONARY
  5
9FDE
330
99CB
100
AcDbDictionary
280
     1
281
     1
  3
ACAD_XREC_ROUNDTRIP
360
9FDF
  0
DICTIONARY
  5
9FDC
330
99CA
100
AcDbDictionary
280
     1
281
     1
  3
ACAD_XREC_ROUNDTRIP
360
9FDD
  0
DICTIONARY
  5
9FEA
330
99D1
100
AcDbDictionary
280
     1
281
     1
  3
ACAD_XREC_ROUNDTRIP
360
9FEB
  0
DICTIONARY
  5
9FF2
330
99D5
100
AcDbDictionary
280
     1
281
     1
  3
ACAD_XREC_ROUNDTRIP
360
9FF3
  0
DICTIONARY
  5
9FE4
330
99CE
100
AcDbDictionary
280
     1
281
     1
  3
ACAD_XREC_ROUNDTRIP
360
9FE5
  0
DICTIONARY
  5
9FE8
330
99D0
100
AcDbDictionary
280
     1
281
     1
  3
ACAD_XREC_ROUNDTRIP
360
9FE9
  0
DICTIONARY
  5
A002
330
99DD
100
AcDbDictionary
280
     1
281
     1
  3
ACAD_XREC_ROUNDTRIP
360
A003
  0
DICTIONARY
  5
9FF0
330
99D4
100
AcDbDictionary
280
     1
281
     1
  3
ACAD_XREC_ROUNDTRIP
360
9FF1
  0
DICTIONARY
  5
9FD4
330
99C6
100
AcDbDictionary
280
     1
281
     1
  3
ACAD_XREC_ROUNDTRIP
360
9FD5
  0
DICTIONARY
  5
9FD6
330
99C7
100
AcDbDictionary
280
     1
281
     1
  3
ACAD_XREC_ROUNDTRIP
360
9FD7
  0
DICTIONARY
  5
9FD8
330
99C8
100
AcDbDictionary
280
     1
281
     1
  3
ACAD_XREC_ROUNDTRIP
360
9FD9
  0
DICTIONARY
  5
9FDA
330
99C9
100
AcDbDictionary
280
     1
281
     1
  3
ACAD_XREC_ROUNDTRIP
360
9FDB
  0
DICTIONARY
  5
9FE2
330
99CD
100
AcDbDictionary
280
     1
281
     1
  3
ACAD_XREC_ROUNDTRIP
360
9FE3
  0
DICTIONARY
  5
9FFE
330
99DB
100
AcDbDictionary
280
     1
281
     1
  3
ACAD_XREC_ROUNDTRIP
360
9FFF
  0
DICTIONARY
  5
9FEE
330
99D3
100
AcDbDictionary
280
     1
281
     1
  3
ACAD_XREC_ROUNDTRIP
360
9FEF
  0
DICTIONARY
  5
A000
330
99DC
100
AcDbDictionary
280
     1
281
     1
  3
ACAD_XREC_ROUNDTRIP
360
A001
  0
DICTIONARY
  5
9FE6
330
99CF
100
AcDbDictionary
280
     1
281
     1
  3
ACAD_XREC_ROUNDTRIP
360
9FE7
  0
DICTIONARY
  5
9FFC
330
99DA
100
AcDbDictionary
280
     1
281
     1
  3
ACAD_XREC_ROUNDTRIP
360
9FFD
  0
DICTIONARY
  5
9FFA
330
99D9
100
AcDbDictionary
280
     1
281
     1
  3
ACAD_XREC_ROUNDTRIP
360
9FFB
  0
DICTIONARY
  5
9FF4
330
99D6
100
AcDbDictionary
280
     1
281
     1
  3
ACAD_XREC_ROUNDTRIP
360
9FF5
  0
DICTIONARY
  5
9FF6
330
99D7
100
AcDbDictionary
280
     1
281
     1
  3
ACAD_XREC_ROUNDTRIP
360
9FF7
  0
DICTIONARY
  5
9FEC
330
99D2
100
AcDbDictionary
280
     1
281
     1
  3
ACAD_XREC_ROUNDTRIP
360
9FED
  0
DICTIONARY
  5
9FE0
330
99CC
100
AcDbDictionary
280
     1
281
     1
  3
ACAD_XREC_ROUNDTRIP
360
9FE1
  0
DICTIONARY
  5
9FF8
330
99D8
100
AcDbDictionary
280
     1
281
     1
  3
ACAD_XREC_ROUNDTRIP
360
9FF9
  0
XRECORD
  5
9F6D
102
{ACAD_REACTORS
330
9D43
102
}
330
9D43
100
AcDbXrecord
280
     1
102
SHADEPLOT
 70
     0
102
SHADEPLOTRESLEVEL
 70
     4
102
SHADEPLOTCUSTOMDPI
 70
   300
  0
XRECORD
  5
9D44
102
{ACAD_REACTORS
330
9D43
102
}
330
9D43
100
AcDbXrecord
280
     1
310
280000000001000090000000010008000000000000900000000000000000000000010000000000000000000000000000FFFFFF000000000000000000000000000000000000000000000000000000000000000000330000006600000099000000CC000000FF00000000330000333300006633000099330000CC330000FF3300
310
0000660000336600006666000099660000CC660000FF66000000990000339900006699000099990000CC990000FF99000000CC000033CC000066CC000099CC0000CCCC0000FFCC000000FF000033FF000066FF000099FF0000CCFF0000FFFF000000003300330033006600330099003300CC003300FF003300003333003333
310
33006633330099333300CC333300FF33330000663300336633006666330099663300CC663300FF66330000993300339933006699330099993300CC993300FF99330000CC330033CC330066CC330099CC3300CCCC3300FFCC330000FF330033FF330066FF330099FF3300CCFF3300FFFF330000006600330066006600660099
310
006600CC006600FF00660000336600333366006633660099336600CC336600FF33660000666600336666006666660099666600CC666600FF66660000996600339966006699660099996600CC996600FF99660000CC660033CC660066CC660099CC6600CCCC6600FFCC660000FF660033FF660066FF660099FF6600CCFF6600
310
FFFF660000009900330099006600990099009900CC009900FF00990000339900333399006633990099339900CC339900FF33990000669900336699006666990099669900CC669900FF66990000999900339999006699990099999900CC999900FF99990000CC990033CC990066CC990099CC9900CCCC9900FFCC990000FF99
310
0033FF990066FF990099FF9900CCFF9900FFFF99000000CC003300CC006600CC009900CC00CC00CC00FF00CC000033CC003333CC006633CC009933CC00CC33CC00FF33CC000066CC003366CC006666CC009966CC00CC66CC00FF66CC000099CC003399CC006699CC009999CC00CC99CC00FF99CC0000CCCC0033CCCC0066CC
310
CC0099CCCC00CCCCCC00FFCCCC0000FFCC0033FFCC0066FFCC0099FFCC00CCFFCC00FFFFCC000000FF003300FF006600FF009900FF00CC00FF00FF00FF000033FF003333FF006633FF009933FF00CC33FF00FF33FF000066FF003366FF006666FF009966FF00CC66FF00FF66FF000099FF003399FF006699FF009999FF00CC
310
99FF00FF99FF0000CCFF0033CCFF0066CCFF0099CCFF00CCCCFF00FFCCFF0000FFFF0033FFFF0066FFFF0099FFFF00CCFFFF00FFFFFF00000000000D0D0D001A1A1A00282828003535350043434300505050005D5D5D006B6B6B00787878008686860093939300A1A1A100AEAEAE00BBBBBB00C9C9C900D6D6D600E4E4E400
310
F1F1F100FFFFFF000000000000000000000000000000000000000000000000000000000000000000000000000000000000000000000000000000000000000000000000000000000000000000000000000000000000000000000000000000000000000000000000000000000000000000000000000000000000000000000000
310
00000000000000000000000000000000000000000000000000000000000000000000000000000000000000000000000000000000000000000000000000000000000000000000000000000000000000000000000000000000000000000000000000000000000000000000000000000000000000000000000000000000000000
310
000000000000000000000000000000000000000000000000000000000000000000000000000000000000000000000000000000000000000000000000BEECECECECECECECECECECECECECECECECECECECECECECECECECECECECECECECECECECECECECECECECECECECECECECECF0ECECECECECECECECECECECECECECECECF5EC
310
F5ECF5F5F5F5F5F5F5F5F5F5F5ECECECECECECECECECECECECECECECECECECBEECECECECECECECECECECECECECECECECECECECECECECECECECECECECECECECECECECECECECECECECECECECECECECF0ECECECECECECECECECECECECECECECECECF5F5F5F5ECF5F5F5F5F5F5F5F5F5F5ECECECECECECECECECECECECECECECEC
310
ECECEC0000000000000000000000000000000000000000000000000000000000000000000000000000000000000000000000000000000000000000000000F0BE000000000000F5F5F5F500F5F5F5F5F500F5F5F5F5F5F5F5F5F500F5F5F5F5F500F5F5F5F5000000000000000000F000000000000000000000000000000000
310
F5F5F5F5F5F5F5F5F5F5F5F5F5F500F500000000EC0000000000000000000000BEF000000000000000F5F5F5F500F5F5F5F500F5F5F500F5F5F5F500F500F5F5F5F50000F5F5F5F50000000000000000F00000000000000000000000000000000000F5F5F5F5F5F5F5F5F5F5F5F5F5F5F500000000EC000000000000000000
310
00000000F00000000000000000000000000000000000000000000000000000000000000000000000000000000000000000000000000000000000000000000000F0BE000000000000F5F5F5F500F5F5F5F5F5F5F5F5F5F500F5F5F50000F5F5F5F5F5F5F5F5F500000000000000000000F00000000000000000000000000000
310
0000F500F500F5F5F5F5F5F5F5F5F5F5F5F500000000EC0000000000000000000000BEF000000000000000F5F5F5F5F5F5F5F5F500F5F5F5F5F5F5F5F5F500F5F5F5F5F500F5F500F5000000000000000000F00000000000000000000000000000000000F5F5F5F5F5F5F5F5F5F5F5F5F5F5F500000000EC00000000000000
310
000000000000F00000000000000000000000000000000000000000000000000000000000000000000000000000000000000000000000000000000000000000000000F000BE0000000000F50000F500F5F5F5F5F5F5F5F5F5F5F5F5F5F5F50000F5F5F500F5F5F5F5F5000000000000000000F5F500F5F500F5F500F5F50000
310
000000000000000000000000000000000000000000000000F5F5F5F500000000000000BE00F000000000000000F50000F5F5F5F5F5F500F5F5F5F5F5F5F5F5F5F500F5F5F50000F5F5F5F5F50000000000000000F0F5F500F5F500F5F500F5F500000000000000000000000000000000000000000000000000ECF5F5F5F500
310
0000000000000000F00000000000000000000000000000000000000000000000000000000000000000000000000000000000000000000000000000000000000000000000F00000BE00000000F5F5F5F500F500F500F500F5F5F500000000F5F5000000F5000000F500F500000000000000000000F5F500F5F500F5F500F5F5
310
0000000000000000000000000000000000000000000000000000F5F5F5F5000000000000BE0000F000000000000000F5F5F5F500F5F5F5F500F500F50000000000F5F50000F500000000F500F5000000000000000000F0F5F500F5F500F5F500F5F500000000000000000000000000000000000000000000000000ECF5F5F5
310
F5000000000000000000F00000000000000000000000000000000000000000000000000000000000000000000000000000000000000000000000000000000000000000000000F0F0F0BEF0F0ECF0F0F0F0F0F0F0F0F0F0F0F0F0F0F0ECF0F0F0F0F0F0F0F0F0F0F0F0F0F0F0ECF0F0F0F0F0F0F0F0F0F5F5F0F5F5F0F5F5F0
310
F5F5F0F0F0F0F0F0F0F0F0F0F0F0F0F0F0F0F0F0F0F0F0F0F0F0F0F0F5F5F5F5F0F0F0F0F0F0BEF0F0F0F0F0F0F0F0ECF0F0F0F0F0F0F0F0F0F0F0F0F0F0F0ECF0F0F0F0F0F0F0F0F0F0F0F0F0F0ECF0F0F0F0F0F0F0F0F0F0F5F5F0F5F5F0F5F5F0F5F5F0F0F0F0F0F0F0F0F0F0F0F0F0F0F0F0F0F0F0F0F0F0F0F0F0ECF5
310
F5F5F5F0F0F0F0F0F0F0F0F0F00000000000000000000000000000000000000000000000000000000000000000000000000000000000000000000000000000000000000000000000F0000000BE00EC000000000000000000F00000000000EC000000000000000000F00000000000EC000000000000000000F0000000000000
310
000000000000000000000000000000000000000000F00000000000000000000000000000000000BE000000F00000000000EC000000000000000000F00000000000EC0000000000000000F00000000000EC000000000000000000F0000000000000000000000000000000000000000000000000000000F00000000000000000
310
0000000000000000000000000000F00000000000000000000000000000000000000000000000000000000000000000000000000000000000000000000000000000000000000000000000F0F5F5F5F5BEEC0000F5F5F5F5000000F000F5F5F5F5EC0000F5F5F5F5F50000F0F5F5F5F500EC000000000000000000F000000000
310
0000F500F500F500000000F500F5F5F5F500F500000000F000000000000000F5F5F5F5F5F5F5F5F5BEF5000000F0F5F5F5F500EC0000F5F5F5F5000000F0F5F5F5F500EC00F5F5F5F5F50000F000F5F5F5F5EC000000000000000000F000000000000000F500F500F5000000F50000F5F5F500F5F5000000F0000000000000
310
0000F5F5F5F5F5F5F5F5F5F5F5000000F00000000000000000000000000000000000000000000000000000000000000000000000000000000000000000000000000000000000000000000000F0F5F5F5F500BE000000F5F5F5000000F000F5F5F5F5EC0000F5F5F5F5F50000F0F5F5F5F500EC000000000000000000F00000
310
0000F5F5F5F5F5F5F5F5000000F5F5F500F500F5F500000000F000000000000000F5F5F5F5F5F5F5F5BE00F5000000F0F5F5F5F500EC0000F500F5F5000000F0F5F5F5F500EC0000F500F5F50000F000F5F5F5F5EC000000000000000000F000000000F5F5F5F5F5F5F5F5F50000F5F500F5F500F5F5F5000000F000000000
310
00000000F5F5F5F5F5F5F5F50000F5000000F00000000000000000000000000000000000000000000000000000000000000000000000000000000000000000000000000000000000000000000000F0F5F5F5F500BE0000F5F5F5F5000000F000F500F5F5EC0000F50000F5F50000F0F5F5F5F500EC000000000000000000F0
310
00000000F5F5F5F5F5F5F5F5000000F5F5F5F5F500F5F5F5F50000F000000000000000F5F5F5F5F5F5F5F5BEF5F5000000F0F5F5F5F500EC0000F5F5F5F5000000F0F5F5F5F500EC0000F500F5F50000F000F5F5F5F5EC000000000000000000F000000000F5F5F5F5F5F5F5F5F50000F5F5F5F5F500F5F5F5F50000F00000
310
000000000000F5F5F5F5F5F5F5F5F5F5F5000000F00000000000000000000000000000000000000000000000000000000000000000000000000000000000000000000000000000000000000000000000F0F0F0F0F0F0ECBEF0F0F0F0F0F0F0F0F0F0F0F0F0F0ECF0F0F0F0F0F0F0F0F0F0F0F0F0F0F0ECF0F0F0F0F0F0F0F0
310
F0F0000000000000000000F5F50000F500000000000000000000000000F00000000000000000000000000000BE000000000000F0F0F0F0F0F0ECF0F0F0F0F0F0F0F0F0F0F0F0F0F0F0ECF0F0F0F0F0F0F0F0F0F0F0F0F0F0ECF0F0F0F0F0F0F0F0F0F000000000000000000000F5F50000F5000000000000000000000000F0
310
00000000000000000000000000000000000000000000F00000000000000000000000000000000000000000000000000000000000000000000000000000000000000000000000000000000000000000000000F00000F5F500ECF5BEF5F5F5F5F5F500F000000000F50000000000F5F5000000F00000000000EC000000000000
310
000000F000000000000000000000F5F5F5F5F5000000000000000000000000F000000000000000000000000000BE00000000000000F00000F5F500ECF5F5F5F5F5F5F50000F000000000F50000000000F5F50000F00000000000EC000000000000000000F000000000000000000000F500F5F5F5F500000000000000000000
310
00F000000000000000000000000000000000000000000000F00000000000000000000000000000000000000000000000000000000000000000000000000000000000000000000000000000000000000000000000F0F5F5F5F500ECF5BEF5F500F5F50000F0000000F5F5F50000F5F500F5000000F0F5F5F5F500EC00F5F5F5
310
F5F5F50000F5F500F5F50000000000F5F500F5F5F5F50000000000000000000000F0F5F500F5F50000000000000000BE00000000000000F0F5F5F5F500ECF5F5F5F5F5F5F50000F0000000F5F5F50000F5F500F50000F000F5F5F5F5EC0000F5F5F5F5F5F500F0F5F500F5F50000000000F500F500F5F50000000000000000
310
000000F000F5F500F50000000000000000000000000000000000F00000000000000000000000000000000000000000000000000000000000000000000000000000000000000000000000000000000000000000000000F0F5F5F5F500ECF5F5BEF5F5F5F50000F00000F5F5F5F5F500F5F5F5F5000000F0F5F5F5F500EC00F5
310
F5F5F5F5F50000F5F500F5F50000000000000000000000000000000000000000000000F0F5F500F5F500000000000000BE0000000000000000F0F5F5F5F500ECF500F5F5F5F5F50000F00000F5F5F5F50000F5F5F5F50000F000F500F5F5EC0000F5F5F5F5F5F500F0F5F500F5F50000000000000000000000000000000000
310
0000000000F000F5F500F5F500000000000000000000000000000000F00000000000000000000000000000000000000000000000000000000000000000000000000000000000000000000000000000000000000000000000F0F5F5F5F500ECF5F5F5BEF5F5F50000F0000000F5F5F500000000F5F5000000F0F5F500F500EC
310
00F5F5F5F5F5F50000F5F500F5F50000000000000000000000000000000000000000000000F0F5F500F5F5000000000000BE000000000000000000F0F5F5F5F500ECF5F5F5F5F5F5F50000F0000000F5F5F500000000F5F50000F000F500F500EC0000F5F5F5F5F5F500F0F5F500F5F5000000000000000000000000000000
310
00000000000000F000F5F500F5F500000000000000000000000000000000F00000000000000000000000000000000000000000000000000000000000000000000000000000000000000000000000000000000000000000000000F0F0F0F0F0F0ECF0F0F0BEF0F0F0F0F0F0F0F0F0F0F0F0F0F0F0F0F0F0F0F0F0F0F0F0F0F0
310
F0ECF0F0F0F0F0F0F0F0F0F0F0F0F0F0F0F0F0F0F0F0F0F0F0F0F0F0F0F0F0F0F0F0F0F0F0F0F0F0F0F0F0F0F0F0F0F0F0F0F0BEF0F0F0F0F0F0F0F0F0F0F0F0F0F0F0ECF0F0F0F0F0F0F0F0F0F0F0F0F0F0F0F0F0F0F0F0F0F0F0F0F0F0F0F0F0F0ECF0F0F0F0F0F0F0F0F0F0F0F0F0F0F0F0F0F0F0F0F0F0F0F0F0F0F0F0
310
F0F0F0F0F0F0F0F0F0F0F0F0F0F0F0F0F0F0F0F0F0F0F0F0F0F0F0F0F0F0F0F0F00000000000000000000000000000000000000000000000000000000000000000000000000000000000000000000000000000000000000000000000F000000000000000000000BE0000000000000000000000000000000000000000000000
310
00000000000000000000000000000000000000000000000000000000000000000000000000000000000000000000000000000000BE00000000000000000000F0000000000000000000000000000000000000000000000000000000000000000000000000000000000000000000000000000000000000000000000000000000
310
00000000000000000000000000000000000000000000000000000000000000000000F00000000000000000000000000000000000000000000000000000000000000000000000000000000000000000000000000000000000000000000000F00000000000000000000000BE0000000000000000000000000000000000000000
310
0000000000000000000000000000000000000000000000000000000000000000000000000000000000000000000000000000000000BE0000000000000000000000F000000000000000000000000000000000000000000000000000000000000000000000000000000000000000000000000000000000000000000000000000
310
000000000000000000000000000000000000000000000000000000000000000000000000F00000000000000000000000000000000000000000000000000000000000000000000000000000000000000000000000000000000000000000000000F0000000000000000000000000BE0000000000000000000000000000000000
310
000000000000000000000000000000000000000000000000000000000000000000000000000000000000000000000000000000000000BE000000000000000000000000F00000000000000000000000000000000000000000000000000000000000000000000000000000000000000000000000000000000000000000000000
310
0000000000000000000000000000000000000000000000000000000000000000000000000000F00000000000000000000000000000000000000000000000000000000000000000000000000000000000000000000000000000000000000000000000F0000000000000000000000000BE000000000000000000000000000000
310
0000000000000000000000000000000000000000000000000000000000000000000000000000000000000000000000000000000000000000BE000000000000000000000000F0000000000000000000000000000000000000000000000000000000000000000000000000000000000000000000000000000000000000000000
310
00000000000000000000000000000000000000000000000000000000000000000000000000000000F00000000000000000000000000000000000000000000000000000000000000000000000000000000000000000000000000000000000000000000000F000000000000000000000000000BE000000000000000000000000
310
000000000000000000000000000000000000000000000000000000000000000000000000000000000000000000000000000000000000000000BE00000000000000000000000000F000000000000000000000000000000000000000000000000000000000000000000000000000000000000000000000000000000000000000
310
000000000000000000000000000000000000000000000000000000000000000000000000000000000000F00000000000000000000000000000000000000000000000000000000000000000000000000000000000000000000000000000000000000000000000F00000000000000000000000000000BE000000000000000000
310
00000000000000000000000000000000000000000000000000000000000000000000000000000000000000000000000000000000000000000000BE0000000000000000000000000000F00000000000000000000000000000000000000000000000000000000000000000000000000000000000000000000000000000000000
310
0000000000000000000000000000000000000000000000000000000000000000000000000000000000000000F00000000000000000000000000000000000000000000000000000000000000000000000000000000000000000000000000000000000000000000000F00000000000000000000000000000BE00000000000000
310
000000000000000000000000000000000000000000000000000000000000000000000000000000000000000000000000000000000000000000000000BE0000000000000000000000000000F0000000000000000000000000000000000000000000000000000000000000000000000000000000000000000000000000000000
310
00000000000000000000000000000000000000000000000000000000000000000000000000000000000000000000F00000000000000000000000000000000000000000000000000000000000000000000000000000000000000000000000000000000000000000000000F0000000000000000000000000000000BE00000000
310
00000000000000000000000000000000000000000000000000000000000000000000000000000000000000000000000000000000000000000000000000BE000000000000000000000000000000F000000000000000000000000000000000000000000000000000000000000000000000000000000000000000000000000000
310
000000000000000000000000000000000000000000000000000000000000000000000000000000000000000000000000F00000000000000000000000000000000000000000000000000000000000000000000000000000000000000000000000000000000000000000000000F000000000000000000000000000000000BE00
310
0000000000000000000000000000000000000000000000000000000000000000000000000000000000000000000000000000000000000000000000000000BE00000000000000000000000000000000F00000000000000000000000000000000000000000000000000000000000000000000000000000000000000000000000
310
0000000000000000000000000000000000000000000000000000000000000000000000000000000000000000000000000000F00000000000000000000000000000000000000000000000000000000000000000000000000000000000000000000000000000000000000000000000F000000000000000000000000000000000
310
BE000000000000000000000000000000000000000000000000000000000000000000000000000000000000000000000000000000000000000000000000000000BE00000000000000000000000000000000F0000000000000000000000000000000000000000000000000000000000000000000000000000000000000000000
310
00000000000000000000000000000000000000000000000000000000000000000000000000000000000000000000000000000000F00000000000000000000000000000000000000000000000000000000000000000000000000000000000000000000000000000000000000000000000F00000000000000000000000000000
310
000000BE00000000000000000000000000000000000000000000000000000000000000000000000000000000000000000000000000000000000000000000000000BE0000000000000000000000000000000000F000000000000000000000000000000000000000000000000000000000000000000000000000000000000000
310
000000000000000000000000000000000000000000000000000000000000000000000000000000000000000000000000000000000000F00000000000000000000000000000000000000000000000000000000000000000000000000000000000000000000000000000000000000000000000F0000000000000000000000000
310
000000000000BE0000000000000000000000000000000000000000000000000000000000000000000000000000000000000000000000000000000000000000000000BE000000000000000000000000000000000000F00000000000000000000000000000000000000000000000000000000000000000000000000000000000
310
0000000000000000000000000000000000000000000000000000000000000000000000000000000000000000000000000000000000000000F00000000000000000000000000000000000000000000000000000000000000000000000000000000000000000000000000000000000000000000000F000000000000000000000
310
0000000000000000BE0000000000000000000000000000000000000000000000000000000000000000000000000000000000000000000000000000000000000000000000BE000000000000000000000000000000000000F0000000000000000000000000000000000000000000000000000000000000000000000000000000
310
00000000000000000000000000000000000000000000000000000000000000000000000000000000000000000000000000000000000000000000F00000000000000000000000000000000000000000000000000000000000000000000000000000000000000000000000000000000000000000000000F00000000000000000
310
0000000000000000000000BE000000000000000000000000000000000000000000000000000000000000000000000000000000000000000000000000000000000000000000BE00000000000000000000000000000000000000F000000000000000000000000000000000000000000000000000000000000000000000000000
310
000000000000000000000000000000000000000000000000000000000000000000000000000000000000000000000000000000000000000000000000F00000000000000000000000000000000000000000000000000000000000000000000000000000000000000000000000000000000000000000000000F0000000000000
310
0000000000000000000000000000BE00000000000000000000000000000000000000000000000000000000000000000000000000000000000000000000000000000000000000BE0000000000000000000000000000000000000000F00000000000000000000000000000000000000000000000000000000000000000000000
310
0000000000000000000000000000000000000000000000000000000000000000000000000000000000000000000000000000000000000000000000000000F00000000000000000000000000000000000000000000000000000000000000000000000000000000000000000000000000000000000000000000000F000000000
310
0000000000000000000000000000000000BE0000000000000000000000000000000000000000000000000000000000000000000000000000000000000000000000000000000000BE000000000000000000000000000000000000000000F0000000000000000000000000000000000000000000000000000000000000000000
310
00000000000000000000000000000000000000000000000000000000000000000000000000000000000000000000000000000000000000000000000000000000F00000000000000000000000000000000000000000000000000000000000000000000000000000000000000000000000000000000000000000000000F00000
310
00000000000000000000000000000000000000BE0000000000000000000000000000000000000000000000000000000000000000000000000000000000000000000000000000000000BE000000000000000000000000000000000000000000F000000000000000000000000000000000000000000000000000000000000000
310
000000000000000000000000000000000000000000000000000000000000000000000000000000000000000000000000000000000000000000000000000000000000F00000000000000000000000000000000000000000000000000000000000000000000000000000000000000000000000000000000000000000000000F0
310
00000000000000000000000000000000000000000000BE000000000000000000000000000000000000000000000000000000000000000000000000000000000000000000000000000000BE00000000000000000000000000000000000000000000F00000000000000000000000000000000000000000000000000000000000
310
0000000000000000000000000000000000000000000000000000000000000000000000000000000000000000000000000000000000000000000000000000000000000000F000000000000000000000000000000000000000000000000000000000000000000000000000000000000000000000000000000000000000000000
310
00F00000000000000000000000000000000000000000000000BE00000000000000000000000000000000000000000000000000000000000000000000000000000000000000000000000000BE0000000000000000000000000000000000000000000000F0000000000000000000000000000000000000000000000000000000
310
00000000000000000000000000000000000000000000000000000000000000000000000000000000000000000000000000000000000000000000000000000000000000000000F00000000000000000000000000000000000000000000000000000000000000000000000000000000000000000000000000000000000000000
310
000000F00000000000000000000000000000000000000000000000BE00000000000000000000000000000000000000000000000000000000000000000000000000000000000000000000000000BE0000000000000000000000000000000000000000000000F000000000000000000000000000000000000000000000000000
310
000000000000000000000000000000000000000000000000000000000000000000000000000000000000000000000000000000000000000000000000000000000000000000000000F0000000000000000000000000000000000000000000000000000000000000000000000000000000000000000000000000000000000000
310
0000000000F0000000000000000000000000000000000000000000000000BE0000000000000000000000000000000000000000000000000000000000000000000000000000000000000000000000BE000000000000000000000000000000000000000000000000F00000000000000000000000000000000000000000000000
310
0000000000000000000000000000000000000000000000000000000000000000000000000000000000000000000000000000000000000000000000000000000000000000000000000000F000000000000000000000000000000000000000000000000000000000000000000000000000000000000000000000000000000000
310
00000000000000F000000000000000000000000000000000000000000000000000BE000000000000000000000000000000000000000000000000000000000000000000000000000000000000000000BE00000000000000000000000000000000000000000000000000F0000000000000000000000000000000000000000000
310
00000000000000000000000000000000000000000000000000000000000000000000000000000000000000000000000000000000000000000000000000000000000000000000000000000000F00000000000000000000000000000000000000000000000000000000000000000000000000000000000000000000000000000
310
000000000000000000F000000000000000000000000000000000000000000000000000BE000000000000000000000000000000000000000000000000000000000000000000000000000000000000000000BE00000000000000000000000000000000000000000000000000F000000000000000000000000000000000000000
310
000000000000000000000000000000000000000000000000000000000000000000000000000000000000000000000000000000000000000000000000000000000000000000000000000000000000F0000000000000000000000000000000000000000000000000000000000000000000000000000000000000000000000000
310
0000000000000000000000F00000000000000000000000000000000000000000000000000000BE00000000000000000000000000000000000000000000000000000000000000000000000000000000000000BE0000000000000000000000000000000000000000000000000000F00000000000000000000000000000000000
310
0000000000000000000000000000000000000000000000000000000000000000000000000000000000000000000000000000000000000000000000000000000000000000000000000000000000000000F000000000000000000000000000000000000000000000000000000000000000000000000000000000000000000000
310
00000000000000000000000000F0000000000000000000000000000000000000000000000000000000BE0000000000000000000000000000000000000000000000000000000000000000000000000000000000BE000000000000000000000000000000000000000000000000000000F0000000000000000000000000000000
310
00000000000000000000000000000000000000000000000000000000000000000000000000000000000000000000000000000000000000000000000000000000000000000000000000000000000000000000F00000000000000000000000000000000000000000000000000000000000000000000000000000000000000000
310
000000000000000000000000000000F0000000000000000000000000000000000000000000000000000000BE0000000000000000000000000000000000000000000000000000000000000000000000000000000000BE000000000000000000000000000000000000000000000000000000F000000000000000000000000000
310
000000000000000000000000000000000000000000000000000000000000000000000000000000000000000000000000000000000000000000000000000000000000000000000000000000000000000000000000F0000000000000000000000000000000000000000000000000000000000000000000000000000000000000
310
0000000000000000000000000000000000F000000000000000000000000000000000000000000000000000000000BE000000000000000000000000000000000000000000000000000000000000000000000000000000BE00000000000000000000000000000000000000000000000000000000F00000000000000000000000
310
0000000000000000000000000000000000000000000000000000000000000000000000000000000000000000000000000000000000000000000000000000000000000000000000000000000000000000000000000000F000000000000000000000000000000000000000000000000000000000000000000000000000000000
310
00000000000000000000000000000000000000F00000000000000000000000000000000000000000000000000000000000BE00000000000000000000000000000000000000000000000000000000000000000000000000BE0000000000000000000000000000000000000000000000000000000000F0000000000000000000
310
00000000000000000000000000000000000000000000000000000000000000000000000000000000000000000000000000000000000000000000000000000000000000000000000000000000000000000000000000000000F00000000000000000000000000000000000000000000000000000000000000000000000000000
310
000000000000000000000000000000000000000000F0000000000000000000000000000000000000000000000000000000000000BE0000000000000000000000000000000000000000000000000000000000000000000000BE000000000000000000000000000000000000000000000000000000000000F000000000000000
310
000000000000000000000000000000000000000000000000000000000000000000000000000000000000000000000000000000000000000000000000000000000000000000000000000000000000000000000000000000000000F0000000000000000000000000000000000000000000000000000000000000000000000000
310
0000000000000000000000000000000000000000000000F0000000000000000000000000000000000000000000000000000000000000BE0000000000000000000000000000000000000000000000000000000000000000000000BE000000000000000000000000000000000000000000000000000000000000F00000000000
310
0000000000000000000000000000000000000000000000000000000000000000000000000000000000000000000000000000000000000000000000000000000000000000000000000000000000000000000000000000000000000000F000000000000000000000000000000000000000000000000000000000000000000000
310
00000000000000000000000000000000000000000000000000F000000000000000000000000000000000000000000000000000000000000000BE000000000000000000000000000000000000000000000000000000000000000000BE00000000000000000000000000000000000000000000000000000000000000F0000000
310
00000000000000000000000000000000000000000000000000000000000000000000000000000000000000000000000000000000000000000000000000000000000000000000000000000000000000000000000000000000000000000000F00000000000000000000000000000000000000000000000000000000000000000
310
000000000000000000000000000000000000000000000000000000F00000000000000000000000000000000000000000000000000000000000000000BE00000000000000000000000000000000000000000000000000000000000000BE0000000000000000000000000000000000000000000000000000000000000000F000
310
000000000000000000000000000000000000000000000000000000000000000000000000000000000000000000000000000000000000000000000000000000000000000000000000000000000000000000000000000000000000000000000000F0000000000000000000000000000000000000000000000000000000000000
310
0000000000000000000000000000000000000000000000000000000000F00000000000000000000000000000000000000000000000000000000000000000BE00000000000000000000000000000000000000000000000000000000000000BE0000000000000000000000000000000000000000000000000000000000000000
310
F000000000000000000000000000000000000000000000000000000000000000000000000000000000000000000000000000000000000000000000000000000000000000000000000000000000000000000000000000000000000000000000000000F000000000000000000000000000000000000000000000000000000000
310
00000000000000000000000000000000000000000000000000000000000000F0000000000000000000000000000000000000000000000000000000000000000000BE0000000000000000000000000000000000000000000000000000000000BE00000000000000000000000000000000000000000000000000000000000000
310
0000F000000000000000000000000000000000000000000000000000000000000000000000000000000000000000000000000000000000000000000000000000000000000000000000000000000000000000000000000000000000000000000000000000F00000000000000000000000000000000000000000000000000000
310
000000000000000000000000000000000000000000000000000000000000000000F000000000000000000000000000000000000000000000000000000000000000000000BE000000000000000000000000000000000000000000000000000000BE000000000000000000000000000000000000000000000000000000000000
310
00000000F000000000000000000000000000000000000000000000000000000000000000000000000000000000000000000000000000000000000000000000000000000000000000000000000000000000000000000000000000000000000000000000000000F0000000000000000000000000000000000000000000000000
310
0000000000000000000000000000000000000000000000000000000000000000000000F000000000000000000000000000000000000000000000000000000000000000000000BE000000000000000000000000000000000000000000000000000000BE00000000000000000000000000000000000000000000000000000000
310
000000000000F000000000000000000000000000000000000000000000000000000000000000000000000000000000000000000000000000000000000000000000000000000000000000000000000000000000000000000000000000000000000000000000000000F000000000000000000000000000000000000000000000
310
00000000000000000000000000000000000000000000000000000000000000000000000000F00000000000000000000000000000000000000000000000000000000000000000000000BE00000000000000000000000000000000000000000000000000BE000000000000000000000000000000000000000000000000000000
310
0000000000000000F000000000000000000000000000000000000000000000000000000000000000000000000000000000000000000000000000000000000000000000000000000000000000000000000000000000000000000000000000000000000000000000000000F00000000000000000000000000000000000000000
310
000000000000000000000000000000000000000000000000000000000000000000000000000000F0000000000000000000000000000000000000000000000000000000000000000000000000BE0000000000000000000000000000000000000000000000BE0000000000000000000000000000000000000000000000000000
310
00000000000000000000F000000000000000000000000000000000000000000000000000000000000000000000000000000000000000000000000000000000000000000000000000000000000000000000000000000000000000000000000000000000000000000000000000F0000000000000000000000000000000000000
310
0000000000000000000000000000000000000000000000000000000000000000000000000000000000F000000000000000000000000000000000000000000000000000000000000000000000000000BE000000000000000000000000000000000000000000BE00000000000000000000000000000000000000000000000000
310
000000000000000000000000F000000000000000000000000000000000000000000000000000000000000000000000000000000000000000000000000000000000000000000000000000000000000000000000000000000000000000000000000000000000000000000000000000F000000000000000000000000000000000
310
00000000000000000000000000000000000000000000000000000000000000000000000000000000000000F000000000000000000000000000000000000000000000000000000000000000000000000000BE000000000000000000000000000000000000000000BE0000000000000000000000000000000000000000000000
310
0000000000000000000000000000F000000000000000000000000000000000000000000000000000000000000000000000000000000000000000000000000000000000000000000000000000000000000000000000000000000000000000000000000000000000000000000000000000F00000000000000000000000000000
310
000000000000000000000000000000000000000000000000000000000000000000000000000000000000000000F00000000000000000000000000000000000000000000000000000000000000000000000000000BE00000000000000000000000000000000000000BE00000000000000000000000000000000000000000000
310
00000000000000000000000000000000F000000000000000000000000000000000000000000000000000000000000000000000000000000000000000000000000000000000000000000000000000000000000000000000000000000000000000000000000000000000000000000000000000F0000000000000000000000000
310
0000000000000000000000000000000000000000000000000000000000000000000000000000000000000000000000F0000000000000000000000000000000000000000000000000000000000000000000000000000000BE0000000000000000000000000000000000BE000000000000000000000000000000000000000000
310
000000000000000000000000000000000000F000000000000000000000000000000000000000000000000000000000000000000000000000000000000000000000000000000000000000000000000000000000000000000000000000000000000000000000000000000000000000000000000000F000000000000000000000
310
00000000000000000000000000000000000000000000000000000000000000000000000000000000000000000000000000F0000000000000000000000000000000000000000000000000000000000000000000000000000000BE0000000000000000000000000000000000BE00000000000000000000000000000000000000
310
0000000000000000000000000000000000000000F000000000000000000000000000000000000000000000000000000000000000000000000000000000000000000000000000000000000000000000000000000000000000000000000000000000000000000000000000000000000000000000000000F00000000000000000
310
000000000000000000000000000000000000000000000000000000000000000000000000000000000000000000000000000000F000000000000000000000000000000000000000000000000000000000000000000000000000000000BE000000000000000000000000000000BE000000000000000000000000000000000000
310
00000000000000000000000000000000000000000000F000000000000000000000000000000000000000000000000000000000000000000000000000000000000000000000000000000000000000000000000000000000000000000000000000000000000000000000000000000000000000000000000000F0000000000000
310
0000000000000000000000000000000000000000000000000000000000000000000000000000000000000000000000000000000000F00000000000000000000000000000000000000000000000000000000000000000000000000000000000BE00000000000000000000000000BE0000000000000000000000000000000000
310
000000000000000000000000000000000000000000000000F000000000000000000000000000000000000000000000000000000000000000000000000000000000000000000000000000000000000000000000000000000000000000000000000000000000000000000000000000000000000000000000000000F000000000
310
00000000000000000000000000000000000000000000000000000000000000000000000000000000000000000000000000000000000000F00000000000000000000000000000000000000000000000000000000000000000000000000000000000BE00000000000000000000000000BE000000000000000000000000000000
310
0000000000000000000000000000000000000000000000000000F000000000000000000000000000000000000000000000000000000000000000000000000000000000000000000000000000000000000000000000000000000000000000000000000000000000000000000000000000000000000000000000000000F00000
310
000000000000000000000000000000000000000000000000000000000000000000000000000000000000000000000000000000000000000000F0000000000000000000000000000000000000000000000000000000000000000000000000000000000000BE0000000000000000000000BE0000000000000000000000000000
310
00000000000000000000000000000000000000000000000000000000F000000000000000000000000000000000000000000000000000000000000000000000000000000000000000000000000000000000000000000000000000000000000000000000000000000000000000000000000000000000000000000000000000F0
310
0000000000000000000000000000000000000000000000000000000000000000000000000000000000000000000000000000000000000000000000F000000000000000000000000000000000000000000000000000000000000000000000000000000000000000BE000000000000000000BE00000000000000000000000000
310
000000000000000000000000000000000000000000000000000000000000F0000000000000000000000000000000000000000000000000000000000000000000000000000000000000000000000000000000000000000000000000000000000000000000000000000000000000000000000000000000000000000000000000
310
00F00000000000000000000000000000000000000000000000000000000000000000000000000000000000000000000000000000000000000000000000F000000000000000000000000000000000000000000000000000000000000000000000000000000000000000BE000000000000000000BE0000000000000000000000
310
0000000000000000000000000000000000000000000000000000000000000000F000000000000000000000000000000000000000000000000000000000000000000000000000000000000000000000000000000000000000000000000000000000000000000000000000000000000000000000000000000000000000000000
310
000000F00000000000000000000000000000000000000000000000000000000000000000000000000000000000000000000000000000000000000000000000F00000000000000000000000000000000000000000000000000000000000000000000000000000000000000000BE00000000000000BE00000000000000000000
310
00000000000000000000000000000000000000000000000000000000000000000000F00000000000000000000000000000000000000000000000000000000000000000000000000000000000000000000000000000000000000000000000000000000000000000000000000000000000000000000000000000000000000000
310
0000000000F00000000000000000000000000000000000000000000000000000000000000000000000000000000000000000000000000000000000000000000000F000000000000000000000000000000000000000000000C3C3C3C3C3C3C3C3C3C3C3C3C3C3C3C3C3C3C3C3C3C3C3BEC3C3000000BE000000000000000000
310
000000000000000000000000000000000000000000000000000000000000000000000000F0000000000000000000000000000000000000000000000000000000000000000000000000000000000000000000000000000000000000000000000000000000000000000000000000000000000000000000000000000000000000
310
00000000000000F00000000000000000000000000000000000000000000000000000000000000000000000000000000000000000000000000000000000000000000000F000000000000000000000000000000000000000000000C3C300000000000000000028282828000000000000000000BEC30000BE0000000000000000
310
0000000000000000000000000000000000000000000000000000000000000000000000000000F000000000000000000000000000000000000000000000000000000000000000000000000000000000000000000000000000000000000000000000000000000000000000000000000000000000000000000000000000000000
310
000000000000000000F00000000000000000000000000000000000000000000000000000000000000000000000000000000000000000000000000000000000000000000000F000000000000000000000000000000000000000000000C30000000000000000000028282828000000000000000000BEC30000BE000000000000
310
00000000000000000000000000000000000000000000000000000000000000000000000000000000F0000000000000000000000000000000000000000000C300000000000000000000000000000000000000000000000000C30000000000000000000000000000000000000000000000000000000000000000000000000000
310
0000000000000000000000F00000000000000000000000000000000000000000000000000000000000000000000000000000000000000000000000000000000000000000000000F000000000000000000000000000000000000000000000C3000000000000000000000000000000000000000000000000BE00BE0000000000
310
000000000000000000000000000000000000000000000000000000000000000000000000000000000000F0000000000000000000000000000000000000000000C3C3C3C3C3C3C3C3C3C3C3C3C3C3C3C3C3C3C3C3C3C3C3C3C3C3C3000000000000000000000000000000000000000000000000000000000000000000000000
310
00000000000000000000000000F00000000000000000000000000000000000000000000000000000000000000000000000000000000000000000000000000000000000000000000000F000000000000000000000000000000000000000000000C3000000000000000000000000000000000000000000000000C3BE00000000
310
0000000000000000000000000000000000000000000000000000000000000000000000000000000000000000F0000000000000000000000000000000000000000000C300000000000000000000002828282800000000000000000000C300000000000000000000000000000000000000000000000000000000000000000000
310
000000000000000000000000000000F00000000000000000000000000000000000000000000000000000000000000000000000000000000000000000000000000000000000000000000000F000000000000000000000000000000000000000000000C3000000000000000000000000000000000000000000000000C3BE0000
310
00000000000000000000000000000000000000000000000000000000000000000000000000000000000000000000F0000000000000000000000000000000000000000000C300000000000000000000002828280000000000000000000000C30000000000000000000000000000000000000000000000000000000000000000
310
0000000000000000000000000000000000F00000000000000000000000000000000000000000000000000000000000000000000000000000000000000000000000000000000000000000000000F000000000000000000000000000000000000000000000C3C3C3C3C3C3C3C3C3C3C3C3C3C3C3C3C3C3C3C3C3C3DC0000BE00
310
BE0000000000000000000000000000000000000000000000000000000000000000000000000000000000000000000000F0000000000000000000000000000000000000000000C300000000000000000000000000000000000000000000000000C3000000000000000000000000000000000000000000000000000000000000
310
00000000000000000000000000000000000000F00000000000000000000000000000000000000000000000000000000000000000000000000000000000000000000000000000000000000000000000F000000000000000000000000000000000000000000000C3000000000000000000282828000000000000000000C300BE
310
C30000BE00000000000000000000000000000000000000000000000000000000000000000000000000000000000000000000F0000000000000000000000000000000000000000000C300000000000000000000000000000000000000000000000000C300000000000000000000000000000000000000000000000000000000
310
000000000000000000000000000000000000000000F00000000000000000000000000000000000000000000000000000000000000000000000000000000000000000000000000000000000000000000000F000000000000000000000000000000000000000000000C3000000000000000000282828000000000000000000C3
310
00BEC30000BE00000000000000000000000000000000000000000000000000000000000000000000000000000000000000000000F0000000000000000000000000000000000000000000C3C3C3C3C3C3C3C3C3C3C3C3C3C3C3C3C3C3C3C3C3C3C3C30000C30000000000000000000000000000000000000000000000000000
310
0000000000000000000000000000000000000000000000F00000000000000000000000000000000000000000000000000000000000000000000000000000000000000000000000000000000000000000000000F000000000000000000000000000000000000000000000C30000000000000000000000000000000000000000
310
00C3BE00C3000000BE000000000000000000000000000000000000000000000000000000000000000000000000000000000000000000F0000000000000000000000000000000000000000000C3C3C3000000000000002828282800000000000000C3C3C30000C3000000000000000000000000000000000000000000000000
310
00000000000000000000000000000000000000000000000000F00000000000000000000000000000000000000000000000000000000000000000000000000000000000000000000000000000000000000000000000F000000000000000000000000000000000000000000000C3000000000000000000000000000000000000
310
000000BE0000C300000000BE0000000000000000000000000000000000000000000000000000000000000000000000000000000000000000F0000000000000000000000000000000000000000000C300000000000000000028282828000000000000000000C30000C300000000000000000000000000000000000000000000
310
000000000000000000000000000000000000000000000000000000F00000000000000000000000000000000000000000000000000000000000000000000000000000000000000000000000000000000000000000000000F000000000000000000000000000000000000000000000C300000000000000000000000000000000
310
00000000BEC30000C30000000000BE00000000000000000000000000000000000000000000000000000000000000000000000000000000000000F0000000000000000000000000000000000000000000C300000000000000000000282828000000000000000000C30000C30000000000000000000000000000000000000000
310
0000000000000000000000000000000000000000000000000000000000F00000000000000000000000000000000000000000000000000000000000000000000000000000000000000000000000000000000000000000000000F000000000000000000000000000000000000000000000C30000000000000000000000000000
310
000000000000BEBE0000C30000000000BE0000000000000000000000000000000000000000BE00000000000000000000000000000000000000000000F0000000000000000000000000000000000000000000C300000000000000000000000000000000000000000000C30000C3000000000000000000000000000000000000
310
0000000000000000BE00000000000000000000000000000000000000000000F00000000000000000000000000000000000000000000000000000000000000000000000000000000000000000000000000000000000000000000000F000000000000000000000000000000000000000000000C3000000000000000000000000
310
00000000000000BE00BE0000C3000000000000BE00000000000000000000000000000000000000BE00000000000000000000000000000000000000000000F0000000000000000000000000000000000000000000C300000000000000000000000000000000000000000000C30000C300000000000000000000000000000000
310
00000000000000000000BE00000000000000000000000000000000000000000000F00000000000000000000000000000000000000000000000000000000000000000000000000000000000000000000000000000000000000000000000F000000000000000000000000000000000000000000000C3000000000000000000DC
310
DCDCDCDCDCDC0000BE0000BE0000C300000000000000BE0000000000000000000000000000DCDCDCDCBEDCDCDCDCC3C3C3C3C3C3C3C3C3000000000000000000F0000000000000000000000000000000000000000000C300000000000000000000DCDCDCDCDCDCDC0000000000C30000C300000000000000000000000000C3
310
C3C3C3C3C3C3C3C3C3DCDCDCBEDCDCDCDC000000000000000000000000000000000000F00000000000000000000000000000000000000000000000000000000000000000000000000000000000000000000000000000000000000000000000F000000000000000000000000000000000000000000000C30000000000000000
310
00DC00000000DC00DC00BEDCDCBEDCDCDC00000000000000BE00000000000000000000000000DC0000DCDCDCDCDC0000DC00000000000000C3000000000000000000F0000000000000000000000000000000000000000000C300000000000000000000DC00000000DCDCDC0000DCDCBEDCDCC3000000000000000000000000
310
00C3C3000000000000DC0000DCDCDCDCDC0000DC0000000000000000000000000000000000F00000000000000000000000000000000000000000000000000000000000000000000000000000000000000000000000000000000000000000000000F000000000000000000000000000000000000000000000DCDCDCDCDCDCDC
310
DCDCDCDC00000000DC00DCBEDC0000BE0000DC0000000000000000BE000000000000000000000000DC00DCDCDCDCDCDCDCDCDC00000000000000C3000000000000000000F0000000000000000000000000000000000000000000C3DCDCDCDCDCDCDCDCDCDCDC00000000DC00DCDCDC0000BE0000DC00000000000000000000
310
000000C3C3000000000000DCDCDCDCDCDCDCDCDCDCDC0000000000000000000000000000000000F00000000000000000000000000000000000000000000000000000000000000000000000000000000000000000000000000000000000000000000000F000000000000000000000000000000000000000000000DC2D2D2D2D
310
2D2D2D2D2DDC00000000DC00BEDC000000BE0000DC000000000000000000BE00000000000000000000DCDCDCDC00DCBEDCDC00DCDCDC000000000000C3000000000000000000F0000000000000000000000000000000000000000000C3DC2D2D2D2D2D2D2D2D2DDC00000000DC00DCDC000000BE0000DC0000000000000000
310
0000000000C3000000000000DCDC00DCDCDCBEDCDC00DCDCDC00000000000000000000000000000000F00000000000000000000000000000000000000000000000000000000000000000000000000000000000000000000000000000000000000000000000F00000000000000000000000000000002828C3C3C3C3C3DC2D2D
310
2D2D2D00000000DC00000000DC00BEDC000000BE0000DC000000000000000000BE00000000000000000000DCDCDCDCDCDCDCDC00DC00DCDC000000000000C3000000000000000000F0000000000000000000000000000000000000000000DCDC000000000000000000DC00000000DC00DCDC000000BE0000DC000000000000
310
00000000000000C3000000000000DCDCDCDC00DCDCDC00DCDC00DC00000000000000000000000000000000F00000000000000000000000000000000000000000000000000000000000000000000000000000000000000000000000000000000000000000000000F00000000000000000000000000000002828C3C3000000DC
310
000000000000000000DC00000000DCBEDCDC000000BE0000DC00000000000000000000BE0000000000000000DCDCDCDC00DC00BE00DC00DCDCDCDC0000000000C3000000000000000000F0000000000000000000000000000000000000000000DCDC000000000000000000DC00000000DC00DCDC000000BE0000DC00000000
310
000000000000000000C30000000000DCDCDCDC00DC00BE00DC00DCDCDCDC000000000000000000000000000000F00000000000000000000000000000000000000000000000000000000000000000000000000000000000000000000000000000000000000000000000F0000000000000000000000000000000282800C30000
310
00DC000000000000000000DC00000000BE00C3C3000000BE0000DC0000000000000000000000BE00000000000000DCDCDCDCDC0000BE0000DC00DCDCDC0000002828C3000000000000000000F0000000000000000000000000000000000000000000DCDC000000000000000000DC00000000DC00DCDC000000BE0000DC0000
310
0000000000000000002828280000000000DCDCDCDCDC0000BE0000DCDCDCDCDC000000000000000000000000000000F00000000000000000000000000000000000000000000000000000000000000000000000000000000000000000000000000000000000000000000000F0000000000000000000000000000000282800C3
310
00BEBEDCBEBEBEBEBEBEBEBEBEDCDCDCDCDCBEBEDCC3BEBEBEBEBEBEDCBE00000000000000000000BE0000000000BEBEBEBEDCDCDCBEBEBEBEBEDCBEDCDCBEBEBE000028C3000000000000000000F00000000000000000000000000000000000000000BEDCDCBEBEBEBEBEBEBEBEBEDCDCDCDCDCDCDCDCDCBEBEBEBEBEBEDC
310
BE000000000000000000000028C3000000BEBEBEDCDCBEDCBEBEBEBEBEDCDCDCBEBEBEBE00000000000000000000000000F00000000000000000000000000000000000000000000000000000000000000000000000000000000000000000000000000000000000000000000000F00000000000000000000000000000002828
310
00C3000000DC000000000000000000DC000000BEDC00C3C3000000BE0000DC000000000000000000000000BE000000000000DCDCDCDCDC0000BE0000DC00DCDCDC0000002828C3000000000000000000F0000000000000000000000000000000000000000000DCDC000000000000000000DC00000000DC00DCDC000000BE00
310
00DC00000000000000000000002828280000000000DCDCDCDCDC0000BE0000DCDCDCDCDC000000000000000000000000000000F00000000000000000000000000000000000000000000000000000000000000000000000000000000000000000000000000000000000000000000000F0000000000000000000000000000000
310
2828C3C3000000DC000000000000000000DC0000BE00DC00DCDC000000BE0000DC00000000000000000000000000BE0000000000DCDCDCDC00DC00BE00DC00DCDCDCDC0000000000C3000000000000000000F0000000000000000000000000000000000000000000DCDC000000000000000000DC00000000DC00DCDC000000
310
BE0000DC00000000000000000000000000C30000000000DCDCDCDC00DC00BE00DC00DCDCDCDC000000000000000000000000000000F00000000000000000000000000000000000000000000000000000000000000000000000000000000000000000000000000000000000000000000000F000000000000000000000000000
310
00002828C3F5C3C3C3DC2D2D2D2D2D2D000000DC00BE0000DC00DCDC000000BE0000DC0000000000000000000000000000BE0000000000DCDCDCDC00DCDCDC00DC00DCDC000000000000C3000000000000000000F0000000000000000000000000000000000000000000DCDC000000000000000000DC00000000DC00DCDC00
310
0000BE0000DC00000000000000000000000000C3000000000000DCDCDCDC00DCDCDC00DCDCDCDC00000000000000000000000000000000F00000000000000000000000000000000000000000000000000000000000000000000000000000000000000000000000000000000000000000000000F00000000000000000000000
310
0000000000000000000000DCDCDCDCDC2D2D2D2D2DDC00BE0000DC00DCDC000000BE0000DC0000000000000000000000000000BE0000000000DC00DCDCDCDCDCDCDCDCDCDCDC000000000000C3000000000000000000F0000000000000000000000000000000000000000000DCDCDCDCDCDC2D2D2D2D2DDC00000000DC00DC
310
DC000000BE0000DC00000000000000000000000000C3000000000000DC00DCDCDCDCDCDCDCDC00DCDC00000000000000000000000000000000F00000000000000000000000000000000000000000000000000000000000000000000000000000000000000000000000000000000000000000000000F0000000000000000000
310
0000000000000000000000000000000000C3DCDCDCDCDCDCBE000000DC00DCDCDCDC00BE0000DC000000000000000000000000000000BE0000000000DC00DCDCDCDCDCDC00DCDC00000000000000C3000000000000000000F0000000000000000000000000000000000000000000000000000000C3DCDCDCDCDC00000000DC
310
00DCDCDCDC00BE0000DC00000000000000000000000000C3C3000000000000DCDC00DCDCDCDCDC00DCDC0000000000000000000000000000000000F00000000000000000000000000000000000000000000000000000000000000000000000000000000000000000000000000000000000000000000000F000000000000000
310
0000000000000000000000000000000000C3C3C30000000000BE00000000DC00DC000000DCBEDCDC0000000000000000000000000000000000BE00000000DC0000DCDCBEDCDCDC00DC00000000000000C3000000000000000000F000000000000000000000000000000000000000000000000000C3C3C300000000DC000000
310
00DCDC00000000DCBEDCDC0000000000000000000000000000C3C3000000000000DC00DCDCDCBEDCDCDC00DC0000000000000000000000000000000000F00000000000000000000000000000000000000000000000000000000000000000000000000000000000000000000000000000000000000000000000F00000000000
310
0000000000000000000000000000000000000000C3000000000000BEDCDCDCDCDCDC0000000000BE00000000000000000000000000000000000000BE0000000000DCDCDCDCBEDCDCDCDCC3C3C3C3C3C3C3C3C3000000000000000000F00000000000000000000000000000000000000000000000000000C30000000000DCDC
310
DCDCDCDCDC0000000000BE00000000000000000000000000000000C3C3C3C3C3C3C3C3C3C3DCDCDCBEDCDCDCDC000000000000000000000000000000000000F00000000000000000000000000000000000000000000000000000000000000000000000000000000000000000000000000000000000000000000000F0000000
310
000000000000000000000000000000000000000000C3000000000000BE000000000000000000000000BE0000000000000000000000000000000000000000BE0000000000000000BE00000000000000000000000000000000000000000000F000000000000000000000000000000000000000000000000000C3000000000000
310
000000000000000000000000000000000000000000000000000000000000000000000000000000000000BE00000000000000000000000000000000000000000000F00000000000000000000000000000000000000000000000000000000000000000000000000000000000000000000000000000000000000000000000F000
310
0000000000000000000000000000000000000000000000C30000000000BE00000000000000000000000000BE000000000000000000000000000000000000000000BE00000000000000BE00000000000000000000000000000000000000000000F000000000000000000000000000000000000000000000000000C300000000
310
0000000000000000000000000000000000000000000000000000000000000000000000000000000000000000BE00000000000000000000000000000000000000000000F00000000000000000000000000000000000000000000000000000000000000000000000000000000000000000000000000000000000000000000000
310
F0000000000000000000000000C3C3C3C3C3C3C3C3C3C3C3C3000000000000BE0000000000000000000000000000000000000000000000000000000000000000000000BE000000000000000000000000000000000000000000000000000000000000F000000000000000000000000000C3C3C3C3C3C3C3C3C3C3C3C3000000
310
000000000000000000000000000000000000000000000000000000000000000000000000000000000000000000000000000000000000000000000000000000000000000000F0000000000000000000000000000000000000000000000000000000000000000000000000000000000000000000000000000000000000000000
310
0000F00000000000000000000000000028002828282828280000000000000000BE00000000000000000000000000000000000000000000000000000000000000000000000000BE0000000000000000000000000000000000000000000000000000000000F00000000000000000000000000000280028282828282828000000
310
0000000000000000000000000000000000000000000000000000000000000000000000000000000000000000000000000000000000000000000000000000000000000000000000F000000000000000000000000000000000000000000000000000000000000000000000000000000000000000000000000000000000000000
310
00000000F000000000000000000000000000282828002800282800000000000000BE000000000000000000000000000000000000000000000000000000000000000000000000000000BE00000000000000000000000000000000000000000000000000000000F0000000000000000000000000000028282800280028282800
310
00000000000000000000000000000000000000000000000000000000000000000000000000000000000000000000000000000000000000000000000000000000000000000000000000F00000000000000000000000000000000000000000000000000000000000000000000000000000000000000000000000000000000000
310
000000000000F0000000000000000000000000002828282828002828000000000000BE0000000000000000000000000000000000000000000000000000000000000000000000000000000000BE000000000000000000000000000000000000000000000000000000F000000000000000000000000000002828282828002828
310
280000000000000000000000000000000000000000000000000000000000000000000000000000000000000000000000000000000000000000000000000000000000000000000000000000F0000000000000000000000000000000000000000000000000000000000000000000000000000000000000000000000000000000
310
0000000000000000F0000000000000000000000000000000000000000000000000000000BE0000000000000000000000000000000000000000000000000000000000000000000000000000000000BE000000000000000000000000000000000000000000000000000000F00000000000000000000000000000000000000000
310
0000000000000000000000000000000000000000000000000000000000000000000000000000000000000000000000000000000000000000000000000000000000000000000000000000000000F000000000000000000000000000000000000000000000000000000000000000000000000000000000000000000000000000
310
00000000000000000000F00000000000000000000000000000000000000000000000000000BE00000000000000000000000000000000000000000000000000000000000000000000000000000000000000BE0000000000000000000000000000000000000000000000000000F0000000000000000000000000000000000000
310
00000000000000000000000000000000000000000000000000000000000000000000000000000000000000000000000000000000000000000000000000000000000000000000000000000000000000F00000000000000000000000000000000000000000000000000000000000000000000000000000000000000000000000
310
000000000000000000000000F000000000000000000000000000000000000000000000000000BE000000000000000000000000000000000000000000000000000000000000000000000000000000000000000000BE00000000000000000000000000000000000000000000000000F000000000000000000000000000000000
310
000000000000000000000000000000000000000000000000000000000000000000000000000000000000000000000000000000000000000000000000000000000000000000000000000000000000000000F0000000000000000000000000000000000000000000000000000000000000000000000000000000000000000000
310
0000000000000000000000000000F000000000000000000000000000000000000000000000000000BE000000000000000000000000000000000000000000000000000000000000000000000000000000000000000000BE00000000000000000000000000000000000000000000000000F00000000000000000000000000000
310
0000000000000000000000000000000000000000000000000000000000000000000000000000000000000000000000000000000000000000000000000000000000000000000000000000000000000000000000F000000000000000000000000000000000000000000000000000000000000000000000000000000000000000
310
00000000000000000000000000000000F0000000000000000000000000000000000000000000000000BE0000000000000000000000000000000000000000000000000000000000000000000000000000000000000000000000BE000000000000000000000000000000000000000000000000F0000000000000000000000000
310
00000000000000000000000000000000000000000000000000000000000000000000000000000000000000000000000000000000000000000000000000000000000000000000000000000000000000000000000000F00000000000000000000000000000000000000000000000000000000000000000000000000000000000
310
000000000000000000000000000000000000F00000000000000000000000000000000000000000000000BE00000000000000000000000000000000000000000000000000000000000000000000000000000000000000000000000000BE0000000000000000000000000000000000000000000000F000000000000000000000
310
000000000000000000000000000000000000000000000000000000000000000000000000000000000000000000000000000000000000000000000000000000000000000000000000000000000000000000000000000000F0000000000000000000000000000000000000000000000000000000000000000000000000000000
310
0000000000000000000000000000000000000000F00000000000000000000000000000000000000000000000BE00000000000000000000000000000000000000000000000000000000000000000000000000000000000000000000000000BE0000000000000000000000000000000000000000000000F00000000000000000
310
0000000000000000000000000000000000000000000000000000000000000000000000000000000000000000000000000000000000000000000000000000000000000000000000000000000000000000000000000000000000F000000000000000000000000000000000000000000000000000000000000000000000000000
310
00000000000000000000000000000000000000000000F000000000000000000000000000000000000000000000BE000000000000000000000000000000000000000000000000000000000000000000000000000000000000000000000000000000BE00000000000000000000000000000000000000000000F0000000000000
310
00000000000000000000000000000000000000000000000000000000000000000000000000000000000000000000000000000000000000000000000000000000000000000000000000000000000000000000000000000000000000F00000000000000000000000000000000000000000000000000000000000000000000000
310
000000000000000000000000000000000000000000000000F0000000000000000000000000000000000000000000BE0000000000000000000000000000000000000000000000000000000000000000000000000000000000000000000000000000000000BE000000000000000000000000000000000000000000F000000000
310
000000000000000000000000000000000000000000000000000000000000000000000000000000000000000000000000000000000000000000000000000000000000000000000000000000000000000000000000000000000000000000F0000000000000000000000000000000000000000000000000000000000000000000
310
0000000000000000000000000000000000000000000000000000F0000000000000000000000000000000000000000000BE0000000000000000000000000000000000000000000000000000000000000000000000000000000000000000000000000000000000BE000000000000000000000000000000000000000000F00000
310
0000000000000000000000000000000000000000000000000000000000000000000000000000000000000000000000000000000000000000000000000000000000000000000000000000000000000000000000000000000000000000000000F000000000000000000000000000000000000000000000000000000000000000
310
00000000000000000000000000000000000000000000000000000000F00000000000000000000000000000000000000000BE00000000000000000000000000000000000000000000000000000000000000000000000000000000000000000000000000000000000000BE0000000000000000000000000000000000000000F0
310
00000000000000000000000000000000000000000000000000000000000000000000000000000000000000000000000000000000000000000000000000000000000000000000000000000000000000000000000000000000000000000000000000F00000000000000000000000000000000000000000000000000000000000
310
000000000000000000000000000000000000000000000000000000000000F000000000000000000000000000000000000000BE000000000000000000000000000000000000000000000000000000000000000000000000000000000000000000000000000000000000000000BE000000000000000000000000000000000000
310
00F000000000000000000000000000000000000000000000000000000000000000000000000000000000000000000000000000000000000000000000000000000000000000000000000000000000000000000000000000000000000000000000000000F0000000000000000000000000000000000000000000000000000000
310
0000000000000000000000000000000000000000000000000000000000000000F0000000000000000000000000000000000000BE0000000000000000000000000000000000000000000000000000000000000000000000000000000000000000000000000000000000000000000000BE000000000000000000000000000000
310
000000F000000000000000000000000000000000000000000000000000000000000000000000000000000000000000000000000000000000000000000000000000000000000000000000000000000000000000000000000000000000000000000000000000F000000000000000000000000000000000000000000000000000
310
00000000000000000000000000000000000000000000000000000000000000000000F0000000000000000000000000000000000000BE0000000000000000000000000000000000000000000000000000000000000000000000000000000000000000000000000000000000000000000000BE00000000000000000000000000
310
0000000000F000000000000000000000000000000000000000000000000000000000000000000000000000000000000000000000000000000000000000000000000000000000000000000000000000000000000000000000000000000000000000000000000000F00000000000000000000000000000000000000000000000
310
000000000000000000000000000000000000000000000000000000000000000000000000F00000000000000000000000000000000000BE00000000000000000000000000000000000000000000000000000000000000000000000000000000000000000000000000000000000000000000000000BE00000000000000000000
310
00000000000000F000000000000000000000000000000000000000000000000000000000000000000000000000000000000000000000000000000000000000000000000000000000000000000000000000000000000000000000000000000000000000000000000000F0000000000000000000000000000000000000000000
310
0000000000000000000000000000000000000000000000000000000000000000000000000000F000000000000000000000000000000000BE000000000000000000000000000000000000000000000000000000000000000000000000000000000000000000000000000000000000000000000000000000BE00000000000000
310
000000000000000000F000000000000000000000000000000000000000000000000000000000000000000000000000000000000000000000000000000000000000000000000000000000000000000000000000000000000000000000000000000000000000000000000000F000000000000000000000000000000000000000
310
00000000000000000000000000000000000000000000000000000000000000000000000000000000F000000000000000000000000000000000BE000000000000000000000000000000000000000000000000000000000000000000000000000000000000000000000000000000000000000000000000000000BE0000000000
310
0000000000000000000000F000000000000000000000000000000000000000000000000000000000000000000000000000000000000000000000000000000000000000000000000000000000000000000000000000000000000000000000000000000000000000000000000000F00000000000000000000000000000000000
310
000000000000000000000000000000000000000000000000000000000000000000000000000000000000F0000000000000000000000000000000BE0000000000000000000000000000000000000000000000000000000000000000000000000000000000000000000000000000000000000000000000000000000000BE0000
310
00000000000000000000000000F000000000000000000000000000000000000000000000000000000000000000000000000000000000000000000000000000000000000000000000000000000000000000000000000000000000000000000000000000000000000000000000000000F0000000000000000000000000000000
310
0000000000000000000000000000000000000000000000000000000000000000000000000000000000000000F00000000000000000000000000000BE00000000000000000000000000000000000000000000000000000000000000000000000000000000000000000000000000000000000000000000000000000000000000
310
BE0000000000000000000000000000F000000000000000000000000000000000000000000000000000000000000000000000000000000000000000000000000000000000000000000000000000000000000000000000000000000000000000000000000000000000000000000000000000F000000000000000000000000000
310
00000000000000000000000000000000000000000000000000000000000000000000000000000000000000000000F00000000000000000000000000000BE0000000000000000000000000000000000000000000000000000000000000000000000000000000000000000000000000000000000000000000000000000000000
310
0000BE0000000000000000000000000000F000000000000000000000000000000000000000000000000000000000000000000000000000000000000000000000000000000000000000000000000000000000000000000000000000000000000000000000000000000000000000000000000000F00000000000000000000000
310
000000000000000000000000000000000000000000000000000000000000000000000000000000000000000000000000F000000000000000000000000000BE00000000000000000000000000000000000000000000000000000000000000000000000000000000000000000000000000000000000000000000000000000000
310
0000000000BE00000000000000000000000000F000000000000000000000000000000000000000000000000000000000000000000000000000000000000000000000000000000000000000000000000000000000000000000000000000000000000000000000000000000000000000000000000000F0000000000000000000
310
0000000000000000000000000000000000000000000000000000000000000000000000000000000000000000000000000000F0000000000000000000000000BE000000000000000000000000000000000000000000000000000000000000000000000000000000000000000000000000000000000000000000000000000000
310
0000000000000000BE000000000000000000000000F000000000000000000000000000000000000000000000000000000000000000000000000000000000000000000000000000000000000000000000000000000000000000000000000000000000000000000000000000000000000000000000000000F000000000000000
310
00000000000000000000000000000000000000000000000000000000000000000000000000000000000000000000000000000000F0000000000000000000000000BE00000000000000000000000000000000000000000000000000000000000000000000000000000000000000000000000000000000000000000000000000
310
00000000000000000000BE000000000000000000000000F000000000000000000000000000000000000000000000000000000000000000000000000000000000000000000000000000000000000000000000000000000000000000000000000000000000000000000000000000000000000000000000000000F00000000000
310
000000000000000000000000000000000000000000000000000000000000000000000000000000000000000000000000000000000000F00000000000000000000000BE000000000000000000000000000000000000000000000000000000000000000000000000000000000000000000000000000000000000000000000000
310
00000000000000000000000000BE0000000000000000000000F000000000000000000000000000000000000000000000000000000000000000000000000000000000000000000000000000000000000000000000000000000000000000000000000000000000000000000000000000000000000000000000000000F0000000
310
0000000000000000000000000000000000000000000000000000000000000000000000000000000000000000000000000000000000000000F000000000000000000000BE0000000000000000000000000000000000000000000000000000000000000000000000000000000000000000000000000000000000000000000000
310
00000000000000000000000000000000BE00000000000000000000F000000000000000000000000000000000000000000000000000000000000000000000000000000000000000000000000000000000000000000000000000000000000000000000000000000000000000000000000000000000000000000000000000F000
310
00000000000000000000000000000000000000000000000000000000000000000000000000000000000000000000000000000000000000000000F0000000000000000000BE00000000000000000000000000000000000000000000000000000000000000000000000000000000000000000000000000000000000000000000
310
00000000000000000000000000000000000000BE000000000000000000F000000000000000000000000000000000000000000000000000000000000000000000000000000000000000000000000000000000000000000000000000000000000000000000000000000000000000000000000000000000000000000000000000
310
F00000000000000000000000000000000000000000000000000000000000000000000000000000000000000000000000000000000000000000000000F0000000000000000000BE0000000000000000000000000000000000000000000000000000000000000000000000000000000000000000000000000000000000000000
310
000000000000000000000000000000000000000000BE000000000000000000F00000000000000000000000000000000000000000000000000000000000000000000000000000000000000000000000000000000000000000000000000000000000000000000000000000000000000000000000000000000000000000000000
310
0000F00000000000000000000000000000000000000000000000000000000000000000000000000000000000000000000000000000000000000000000000F00000000000000000BE00000000000000000000000000000000000000000000000000000000000000000000000000000000000000000000000000000000000000
310
000000000000000000000000000000000000000000000000BE0000000000000000F0000000000000000000000000000000000000000000000000000000000000000000000000000000000000000000000000000000000000000000000000000000000000000000000000000000000000000000000000000000000000000000
310
00000000F00000000000000000000000000000000000000000000000000000000000000000000000000000000000000000000000000000000000000000000000F000000000000000BE000000000000000000000000000000000000000000000000000000000000000000000000000000000000000000000000000000000000
310
000000000000000000000000000000000000000000000000000000BE00000000000000F000000000000000000000000000000000000000000000000000000000000000000000000000000000000000000000000000000000000000000000000000000000000000000000000000000000000000000000000000000000000000
310
000000000000F00000000000000000000000000000000000000000000000000000000000000000000000000000000000000000000000000000000000000000000000F000000000000000BE00000000000000000000000000000000000000000000000000000000000000000000000000000000000000000000000000000000
310
0000000000000000000000000000000000000000000000000000000000BE00000000000000F00000000000000000000000000000000000000000000000000000000000000000000000000000000000000000000000000000000000000000000000000000000000000000000000000000000000000000000000000000000000
310
0000000000000000F00000000000000000000000000000000000000000000000000000000000000000000000000000000000000000000000000000000000000000000000F0000000000000BE000000000000000000000000000000000000000000000000000000000000000000000000000000000000000000000000000000
310
0000000000000000000000000000000000000000000000000000000000000000BE000000000000F0000000000000000000000000000000000000000000000000000000000000000000000000000000000000000000000000000000000000000000000000000000000000000000000000000000000000000000000000000000
310
00000000000000000000F00000000000000000000000000000000000000000000000000000000000000000000000000000000000000000000000000000000000000000000000F00000000000BE0000000000000000000000000000000000000000000000000000000000000000000000000000000000000000000000000000
310
0000000000000000000000000000000000000000000000000000000000000000000000BE0000000000F000000000000000000000000000000000000000000000000000000000000000000000000000000000000000000000000000000000000000000000000000000000000000000000000000000000000000000000000000
310
000000000000000000000000F00000000000000000000000000000000000000000000000000000000000000000000000000000000000000000000000000000000000000000000000F00000000000BE000000000000000000000000000000000000000000000000000000000000000000000000000000000000000000000000
310
00000000000000000000000000000000000000000000000000000000000000000000000000BE0000000000F00000000000000000000000000000000000000000000000000000000000000000000000000000000000000000000000000000000000000000000000000000000000000000000000000000000000000000000000
310
0000000000000000000000000000F00000000000000000000000000000000000000000000000000000000000000000000000000000000000000000000000000000000000000000000000F000000000BE0000000000000000000000000000000000000000000000000000000000000000000000000000000000000000000000
310
00000000000000000000000000000000000000000000000000000000000000000000000000000000BE00000000F0000000000000000000000000000000000000000000000000000000000000000000000000000000000000000000000000000000000000000000000000000000000000000000000000000000000000000000
310
00000000000000000000000000000000F00000000000000000000000000000000000000000000000000000000000000000000000000000000000000000000000000000000000000000000000F0000000BE00000000000000000000000000000000000000000000000000000000000000000000000000000000000000000000
310
00000000000000000000000000000000000000000000000000000000000000000000000000000000000000BE000000F000000000000000000000000000000000000000000000000000000000000000000000000000000000000000000000000000000000000000000000000000000000000000000000000000000000000000
310
000000000000000000000000000000000000F00000000000000000000000000000000000000000000000000000000000000000000000000000000000000000000000000000000000000000000000F00000BE000000000000000000000000000000000000000000000000000000000000000000000000000000000000000000
310
00000000000000000000000000000000000000000000000000000000000000000000000000000000000000000000BE0000F00000000000000000000000000000000000000000000000000000000000000000000000000000000000000000000000000000000000000000000000000000000000000000000000000000000000
310
0000000000000000000000000000000000000000F00000000000000000000000000000000000000000000000000000000000000000000000000000000000000000000000000000000000000000000000F00000BE00000000000000000000000000000000000000000000000000000000000000000000000000000000000000
310
000000000000000000000000000000000000000000000000000000000000000000000000000000000000000000000000BE0000F0000000000000000000000000000000000000000000000000000000000000000000000000000000000000000000000000000000000000000000000000000000000000000000000000000000
310
00000000000000000000000000000000000000000000F00000000000000000000000000000000000000000000000000000000000000000000000000000000000000000000000000000000000000000000000F000BE000000000000000000000000000000000000000000000000000000000000000000000000000000000000
310
000000000000000000000000000000000000000000000000000000000000000000000000000000000000000000000000000000BE00F000000000000000000000000000000000000000000000000000000000000000000000000000000000000000000000000000000000000000000000000000000000000000000000000000
310
000000000000000000000000000000000000000000000000F00000000000000000000000000000000000000000000000000000000000000000000000000000000000000000000000000000000000000000000000F0BE0000000000000000000000000000000000000000000000000000000000000000000000000000000000
310
000000000000000000000000000000000000000000000000000000000000000000000000000000000000000000000000000000000000BEF00000000000000000000000000000000000000000000000000000000000000000000000000000000000000000000000000000000000000000000000000000000000000000000000
310
0000000000000000000000000000000000000000000000000000F00000000000000000000000000000000000000000000000000000000000000000000000000000000000000000000000000000000000000000000000F0BE000000000000000000000000000000000000000000000000000000000000000000000000000000
310
0000000000000000000000000000000000000000000000000000000000000000000000000000000000000000000000000000000000000000BEF0000000000000000000000000000000000000000000000000000000000000000000000000000000000000000000000000000000000000000000000000000000000000000000
310
00000000000000000000000000000000000000000000000000000000F00000000000000000000000000000000000000000000000000000000000000000000000000000000000000000000000000000000000000000000000BEF0F0F0F0F0F0F0F0F0F0F0F0F0F0F0F0F0F0F0F0F0F0F0F0F0F0F0F0F0F0F0F0F0F0F0F0F0F0
310
F0F0F0F0F0F0F0F0F0F0F0F0F0F0F0F0F0F0F0F0F0F0F0F0F0F0F0F0F0F0F0F0F0F0F0F0F0F0F0F0F0F0F0F0F0F0F0F0F0F0F0F0F0F0F0F0F0F0F0BEF0F0F0F0F0F0F0F0F0F0F0F0F0F0F0F0F0F0F0F0F0F0F0F0F0F0F0F0F0F0F0F0F0F0F0F0F0F0F0F0F0F0F0F0F0F0F0F0F0F0F0F0F0F0F0F0F0F0F0F0F0F0F0F0F0F0F0
310
F0F0F0F0F0F0F0F0F0F0F0F0F0F0F0F0F0F0F0F0F0F0F0F0F0F0F0F0F0F0F0000000000000000000000000000000000000000000000000000000000000000000000000000000000000000000000000000000000000000000000000000000000000000000000000000000000000000000000000000000000000000000000000
310
00000000000000000000000000000000000000000000000000000000000000000000000000000000000000000000000000000000000000000000000000000000000000000000000000000000000000000000000000000000000000000000000000000000000000000000000000000000000000000000000000000000000000
310
00000000000000000000000000000000000000000000000000000000000000000000000000000000000000000000000000000000000000000000000000000000000000000000000000000000000000000000
  0
XRECORD
  5
9F6C
102
{ACAD_REACTORS
330
9F6B
102
}
330
9F6B
100
AcDbXrecord
280
     1
102
SHADEPLOT
 70
     0
102
SHADEPLOTRESLEVEL
 70
     2
102
SHADEPLOTCUSTOMDPI
 70
   300
  0
XRECORD
  5
9F6F
102
{ACAD_REACTORS
330
9F6E
102
}
330
9F6E
100
AcDbXrecord
280
     1
102
SHADEPLOT
 70
     0
102
SHADEPLOTRESLEVEL
 70
     2
102
SHADEPLOTCUSTOMDPI
 70
   300
  0
XRECORD
  5
9FD2
102
{ACAD_REACTORS
330
99B6
102
}
330
99B6
100
AcDbXrecord
280
     1
102
MATERIAL
148
0.0
149
0.0
149
0.0
 93
        0
 94
      127
282
     0
 72
     0
 77
     0
171
     0
175
     0
179
     0
273
     0
  0
XRECORD
  5
99B8
102
{ACAD_REACTORS
330
99B6
102
}
330
99B6
100
AcDbXrecord
280
     1
270
     1
271
     1
  0
XRECORD
  5
99B7
102
{ACAD_REACTORS
330
99B6
102
}
330
99B6
100
AcDbXrecord
280
     1
270
     1
271
     1
  0
XRECORD
  5
99BB
102
{ACAD_REACTORS
330
99B6
102
}
330
99B6
100
AcDbXrecord
280
     1
270
     1
271
     1
  0
XRECORD
  5
99BA
102
{ACAD_REACTORS
330
99B6
102
}
330
99B6
100
AcDbXrecord
280
     1
270
     1
271
     1
  0
XRECORD
  5
99BC
102
{ACAD_REACTORS
330
99B6
102
}
330
99B6
100
AcDbXrecord
280
     1
270
     1
271
     1
  0
XRECORD
  5
99B9
102
{ACAD_REACTORS
330
99B6
102
}
330
99B6
100
AcDbXrecord
280
     1
270
     1
271
     1
  0
XRECORD
  5
9FD1
102
{ACAD_REACTORS
330
99AE
102
}
330
99AE
100
AcDbXrecord
280
     1
102
MATERIAL
148
0.0
149
0.0
149
0.0
 93
        0
 94
      127
282
     0
 72
     0
 77
     0
171
     0
175
     0
179
     0
273
     0
  0
XRECORD
  5
99B0
102
{ACAD_REACTORS
330
99AE
102
}
330
99AE
100
AcDbXrecord
280
     1
270
     1
271
     1
  0
XRECORD
  5
99AF
102
{ACAD_REACTORS
330
99AE
102
}
330
99AE
100
AcDbXrecord
280
     1
270
     1
271
     1
  0
XRECORD
  5
99B3
102
{ACAD_REACTORS
330
99AE
102
}
330
99AE
100
AcDbXrecord
280
     1
270
     1
271
     1
  0
XRECORD
  5
99B2
102
{ACAD_REACTORS
330
99AE
102
}
330
99AE
100
AcDbXrecord
280
     1
270
     1
271
     1
  0
XRECORD
  5
99B4
102
{ACAD_REACTORS
330
99AE
102
}
330
99AE
100
AcDbXrecord
280
     1
270
     1
271
     1
  0
XRECORD
  5
99B1
102
{ACAD_REACTORS
330
99AE
102
}
330
99AE
100
AcDbXrecord
280
     1
270
     1
271
     1
  0
XRECORD
  5
9FD3
102
{ACAD_REACTORS
330
99BE
102
}
330
99BE
100
AcDbXrecord
280
     1
102
MATERIAL
148
0.0
149
0.0
149
0.0
 93
        0
 94
      127
282
     0
 72
     0
 77
     0
171
     0
175
     0
179
     0
273
     0
  0
XRECORD
  5
99C0
102
{ACAD_REACTORS
330
99BE
102
}
330
99BE
100
AcDbXrecord
280
     1
270
     1
271
     1
  0
XRECORD
  5
99BF
102
{ACAD_REACTORS
330
99BE
102
}
330
99BE
100
AcDbXrecord
280
     1
270
     1
271
     1
  0
XRECORD
  5
99C3
102
{ACAD_REACTORS
330
99BE
102
}
330
99BE
100
AcDbXrecord
280
     1
270
     1
271
     1
  0
XRECORD
  5
99C2
102
{ACAD_REACTORS
330
99BE
102
}
330
99BE
100
AcDbXrecord
280
     1
270
     1
271
     1
  0
XRECORD
  5
99C4
102
{ACAD_REACTORS
330
99BE
102
}
330
99BE
100
AcDbXrecord
280
     1
270
     1
271
     1
  0
XRECORD
  5
99C1
102
{ACAD_REACTORS
330
99BE
102
}
330
99BE
100
AcDbXrecord
280
     1
270
     1
271
     1
  0
CELLSTYLEMAP
  5
9F68
102
{ACAD_REACTORS
330
9F67
102
}
330
9F67
100
AcDbCellStyleMap
 90
        3
300
CELLSTYLE
  1
TABLEFORMAT_BEGIN
 90
        5
170
     1
 91
        0
 92
    32768
 62
   257
 93
        1
300
CONTENTFORMAT
  1
CONTENTFORMAT_BEGIN
 90
        0
 91
        0
 92
        4
 93
        0
300

 40
0.0
140
1.0
 94
        5
 62
     0
340
11
144
6.0
309
CONTENTFORMAT_END
171
     1
301
MARGIN
  1
CELLMARGIN_BEGIN
 40
1.5
 40
1.5
 40
1.5
 40
1.5
 40
0.18
 40
0.18
309
CELLMARGIN_END
 94
        6
 95
        1
302
GRIDFORMAT
  1
GRIDFORMAT_BEGIN
 90
        0
 91
        1
 62
     0
 92
       -2
340
0
 93
        0
 40
0.045
309
GRIDFORMAT_END
 95
        2
302
GRIDFORMAT
  1
GRIDFORMAT_BEGIN
 90
        0
 91
        1
 62
     0
 92
       -2
340
0
 93
        0
 40
0.045
309
GRIDFORMAT_END
 95
        4
302
GRIDFORMAT
  1
GRIDFORMAT_BEGIN
 90
        0
 91
        1
 62
     0
 92
       -2
340
0
 93
        0
 40
0.045
309
GRIDFORMAT_END
 95
        8
302
GRIDFORMAT
  1
GRIDFORMAT_BEGIN
 90
        0
 91
        1
 62
     0
 92
       -2
340
0
 93
        0
 40
0.045
309
GRIDFORMAT_END
 95
       16
302
GRIDFORMAT
  1
GRIDFORMAT_BEGIN
 90
        0
 91
        1
 62
     0
 92
       -2
340
0
 93
        0
 40
0.045
309
GRIDFORMAT_END
 95
       32
302
GRIDFORMAT
  1
GRIDFORMAT_BEGIN
 90
        0
 91
        1
 62
     0
 92
       -2
340
0
 93
        0
 40
0.045
309
GRIDFORMAT_END
309
TABLEFORMAT_END
  1
CELLSTYLE_BEGIN
 90
        1
 91
        1
300
_TITLE
309
CELLSTYLE_END
300
CELLSTYLE
  1
TABLEFORMAT_BEGIN
 90
        5
170
     1
 91
        0
 92
        0
 62
   257
 93
        1
300
CONTENTFORMAT
  1
CONTENTFORMAT_BEGIN
 90
        0
 91
        0
 92
        4
 93
        0
300

 40
0.0
140
1.0
 94
        5
 62
     0
340
11
144
4.5
309
CONTENTFORMAT_END
171
     1
301
MARGIN
  1
CELLMARGIN_BEGIN
 40
1.5
 40
1.5
 40
1.5
 40
1.5
 40
0.18
 40
0.18
309
CELLMARGIN_END
 94
        6
 95
        1
302
GRIDFORMAT
  1
GRIDFORMAT_BEGIN
 90
        0
 91
        1
 62
     0
 92
       -2
340
0
 93
        0
 40
0.045
309
GRIDFORMAT_END
 95
        2
302
GRIDFORMAT
  1
GRIDFORMAT_BEGIN
 90
        0
 91
        1
 62
     0
 92
       -2
340
0
 93
        0
 40
0.045
309
GRIDFORMAT_END
 95
        4
302
GRIDFORMAT
  1
GRIDFORMAT_BEGIN
 90
        0
 91
        1
 62
     0
 92
       -2
340
0
 93
        0
 40
0.045
309
GRIDFORMAT_END
 95
        8
302
GRIDFORMAT
  1
GRIDFORMAT_BEGIN
 90
        0
 91
        1
 62
     0
 92
       -2
340
0
 93
        0
 40
0.045
309
GRIDFORMAT_END
 95
       16
302
GRIDFORMAT
  1
GRIDFORMAT_BEGIN
 90
        0
 91
        1
 62
     0
 92
       -2
340
0
 93
        0
 40
0.045
309
GRIDFORMAT_END
 95
       32
302
GRIDFORMAT
  1
GRIDFORMAT_BEGIN
 90
        0
 91
        1
 62
     0
 92
       -2
340
0
 93
        0
 40
0.045
309
GRIDFORMAT_END
309
TABLEFORMAT_END
  1
CELLSTYLE_BEGIN
 90
        2
 91
        1
300
_HEADER
309
CELLSTYLE_END
300
CELLSTYLE
  1
TABLEFORMAT_BEGIN
 90
        5
170
     1
 91
        0
 92
        0
 62
   257
 93
        1
300
CONTENTFORMAT
  1
CONTENTFORMAT_BEGIN
 90
        0
 91
        0
 92
        4
 93
        0
300

 40
0.0
140
1.0
 94
        2
 62
     0
340
11
144
4.5
309
CONTENTFORMAT_END
171
     1
301
MARGIN
  1
CELLMARGIN_BEGIN
 40
1.5
 40
1.5
 40
1.5
 40
1.5
 40
0.18
 40
0.18
309
CELLMARGIN_END
 94
        6
 95
        1
302
GRIDFORMAT
  1
GRIDFORMAT_BEGIN
 90
        0
 91
        1
 62
     0
 92
       -2
340
0
 93
        0
 40
0.045
309
GRIDFORMAT_END
 95
        2
302
GRIDFORMAT
  1
GRIDFORMAT_BEGIN
 90
        0
 91
        1
 62
     0
 92
       -2
340
0
 93
        0
 40
0.045
309
GRIDFORMAT_END
 95
        4
302
GRIDFORMAT
  1
GRIDFORMAT_BEGIN
 90
        0
 91
        1
 62
     0
 92
       -2
340
0
 93
        0
 40
0.045
309
GRIDFORMAT_END
 95
        8
302
GRIDFORMAT
  1
GRIDFORMAT_BEGIN
 90
        0
 91
        1
 62
     0
 92
       -2
340
0
 93
        0
 40
0.045
309
GRIDFORMAT_END
 95
       16
302
GRIDFORMAT
  1
GRIDFORMAT_BEGIN
 90
        0
 91
        1
 62
     0
 92
       -2
340
0
 93
        0
 40
0.045
309
GRIDFORMAT_END
 95
       32
302
GRIDFORMAT
  1
GRIDFORMAT_BEGIN
 90
        0
 91
        1
 62
     0
 92
       -2
340
0
 93
        0
 40
0.045
309
GRIDFORMAT_END
309
TABLEFORMAT_END
  1
CELLSTYLE_BEGIN
 90
        3
 91
        2
300
_DATA
309
CELLSTYLE_END
  0
XRECORD
  5
9FD0
102
{ACAD_REACTORS
330
9F67
102
}
330
9F67
100
AcDbXrecord
280
     1
102
ACAD_ROUNDTRIP_PRE2007_TABLESTYLE
 90
        4
 91
        0
  1

 92
        4
 93
        0
  2

 94
        4
 95
        0
  3

  0
XRECORD
  5
9FDF
102
{ACAD_REACTORS
330
9FDE
102
}
330
9FDE
100
AcDbXrecord
280
     1
102
RTVSPropertyOp0
 70
     1
102
RTVSPropertyOp1
 70
     1
102
RTVSPropertyOp2
 70
     1
102
RTVSPropertyOp3
 70
     1
102
RTVSPropertyOp4
 70
     1
102
RTVSPropertyOp5
 70
     1
102
RTVSPropertyOp6
 70
     1
102
RTVSPropertyOp7
 70
     1
102
RTVSPropertyOp8
 70
     1
102
RTVSPropertyOp9
 70
     1
102
RTVSPropertyOp10
 70
     1
102
RTVSPropertyOp11
 70
     1
102
RTVSPropertyOp12
 70
     1
102
RTVSPropertyOp13
 70
     1
102
RTVSPropertyOp14
 70
     1
102
RTVSPropertyOp15
 70
     1
102
RTVSPropertyOp16
 70
     1
102
RTVSPropertyOp17
 70
     1
102
RTVSPropertyOp18
 70
     1
102
RTVSPropertyOp19
 70
     1
102
RTVSPropertyOp20
 70
     1
102
RTVSPropertyOp21
 70
     1
102
RTVSPropertyOp22
 70
     1
102
RTVSPropertyOp23
 70
     1
102
RTVSPropertyOp24
 70
     1
102
RTVSPropertyOp25
 70
     1
102
RTVSPropertyOp26
 70
     1
102
RTVSPropertyOp27
 70
     1
102
RTVSPropertyOp28
 70
     1
102
RTVSPropertyOp29
 70
     1
102
RTVSPropertyOp30
 70
     1
102
RTVSPropertyOp31
 70
     1
102
RTVSPropertyOp32
 70
     1
  0
XRECORD
  5
9FDD
102
{ACAD_REACTORS
330
9FDC
102
}
330
9FDC
100
AcDbXrecord
280
     1
102
RTVSPropertyOp0
 70
     1
102
RTVSPropertyOp1
 70
     1
102
RTVSPropertyOp2
 70
     1
102
RTVSPropertyOp3
 70
     1
102
RTVSPropertyOp4
 70
     1
102
RTVSPropertyOp5
 70
     1
102
RTVSPropertyOp6
 70
     1
102
RTVSPropertyOp7
 70
     1
102
RTVSPropertyOp8
 70
     1
102
RTVSPropertyOp9
 70
     1
102
RTVSPropertyOp10
 70
     1
102
RTVSPropertyOp11
 70
     1
102
RTVSPropertyOp12
 70
     1
102
RTVSPropertyOp13
 70
     1
102
RTVSPropertyOp14
 70
     1
102
RTVSPropertyOp15
 70
     1
102
RTVSPropertyOp16
 70
     1
102
RTVSPropertyOp17
 70
     1
102
RTVSPropertyOp18
 70
     1
102
RTVSPropertyOp19
 70
     1
102
RTVSPropertyOp20
 70
     1
102
RTVSPropertyOp21
 70
     1
102
RTVSPropertyOp22
 70
     1
102
RTVSPropertyOp23
 70
     1
102
RTVSPropertyOp24
 70
     1
102
RTVSPropertyOp25
 70
     1
102
RTVSPropertyOp26
 70
     1
102
RTVSPropertyOp27
 70
     1
102
RTVSPropertyOp28
 70
     1
102
RTVSPropertyOp29
 70
     1
102
RTVSPropertyOp30
 70
     1
102
RTVSPropertyOp31
 70
     1
102
RTVSPropertyOp32
 70
     1
  0
XRECORD
  5
9FEB
102
{ACAD_REACTORS
330
9FEA
102
}
330
9FEA
100
AcDbXrecord
280
     1
102
RTVSPropertyOp0
 70
     1
102
RTVSPropertyOp1
 70
     1
102
RTVSPropertyOp2
 70
     1
102
RTVSPropertyOp3
 70
     1
102
RTVSPropertyOp4
 70
     1
102
RTVSPropertyOp5
 70
     1
102
RTVSPropertyOp6
 70
     1
102
RTVSPropertyOp7
 70
     1
102
RTVSPropertyOp8
 70
     1
102
RTVSPropertyOp9
 70
     1
102
RTVSPropertyOp10
 70
     1
102
RTVSPropertyOp11
 70
     1
102
RTVSPropertyOp12
 70
     1
102
RTVSPropertyOp13
 70
     1
102
RTVSPropertyOp14
 70
     1
102
RTVSPropertyOp15
 70
     1
102
RTVSPropertyOp16
 70
     1
102
RTVSPropertyOp17
 70
     1
102
RTVSPropertyOp18
 70
     1
102
RTVSPropertyOp19
 70
     1
102
RTVSPropertyOp20
 70
     1
102
RTVSPropertyOp21
 70
     1
102
RTVSPropertyOp22
 70
     1
102
RTVSPropertyOp23
 70
     1
102
RTVSPropertyOp24
 70
     1
102
RTVSPropertyOp25
 70
     1
102
RTVSPropertyOp26
 70
     1
102
RTVSPropertyOp27
 70
     1
102
RTVSPropertyOp28
 70
     1
102
RTVSPropertyOp29
 70
     1
102
RTVSPropertyOp30
 70
     1
102
RTVSPropertyOp31
 70
     1
102
RTVSPropertyOp32
 70
     1
  0
XRECORD
  5
9FF3
102
{ACAD_REACTORS
330
9FF2
102
}
330
9FF2
100
AcDbXrecord
280
     1
102
RTVSPropertyOp0
 70
     1
102
RTVSPropertyOp1
 70
     1
102
RTVSPropertyOp2
 70
     1
102
RTVSPropertyOp3
 70
     1
102
RTVSPropertyOp4
 70
     1
102
RTVSPropertyOp5
 70
     1
102
RTVSPropertyOp6
 70
     1
102
RTVSPropertyOp7
 70
     1
102
RTVSPropertyOp8
 70
     1
102
RTVSPropertyOp9
 70
     1
102
RTVSPropertyOp10
 70
     1
102
RTVSPropertyOp11
 70
     1
102
RTVSPropertyOp12
 70
     1
102
RTVSPropertyOp13
 70
     1
102
RTVSPropertyOp14
 70
     1
102
RTVSPropertyOp15
 70
     1
102
RTVSPropertyOp16
 70
     1
102
RTVSPropertyOp17
 70
     1
102
RTVSPropertyOp18
 70
     1
102
RTVSPropertyOp19
 70
     1
102
RTVSPropertyOp20
 70
     1
102
RTVSPropertyOp21
 70
     1
102
RTVSPropertyOp22
 70
     1
102
RTVSPropertyOp23
 70
     1
102
RTVSPropertyOp24
 70
     1
102
RTVSPropertyOp25
 70
     1
102
RTVSPropertyOp26
 70
     1
102
RTVSPropertyOp27
 70
     1
102
RTVSPropertyOp28
 70
     1
102
RTVSPropertyOp29
 70
     1
102
RTVSPropertyOp30
 70
     1
102
RTVSPropertyOp31
 70
     1
102
RTVSPropertyOp32
 70
     1
  0
XRECORD
  5
9FE5
102
{ACAD_REACTORS
330
9FE4
102
}
330
9FE4
100
AcDbXrecord
280
     1
102
RTVSPropertyOp0
 70
     1
102
RTVSPropertyOp1
 70
     1
102
RTVSPropertyOp2
 70
     1
102
RTVSPropertyOp3
 70
     1
102
RTVSPropertyOp4
 70
     1
102
RTVSPropertyOp5
 70
     1
102
RTVSPropertyOp6
 70
     1
102
RTVSPropertyOp7
 70
     1
102
RTVSPropertyOp8
 70
     1
102
RTVSPropertyOp9
 70
     1
102
RTVSPropertyOp10
 70
     1
102
RTVSPropertyOp11
 70
     1
102
RTVSPropertyOp12
 70
     1
102
RTVSPropertyOp13
 70
     1
102
RTVSPropertyOp14
 70
     1
102
RTVSPropertyOp15
 70
     1
102
RTVSPropertyOp16
 70
     1
102
RTVSPropertyOp17
 70
     1
102
RTVSPropertyOp18
 70
     1
102
RTVSPropertyOp19
 70
     1
102
RTVSPropertyOp20
 70
     1
102
RTVSPropertyOp21
 70
     1
102
RTVSPropertyOp22
 70
     1
102
RTVSPropertyOp23
 70
     1
102
RTVSPropertyOp24
 70
     1
102
RTVSPropertyOp25
 70
     1
102
RTVSPropertyOp26
 70
     1
102
RTVSPropertyOp27
 70
     1
102
RTVSPropertyOp28
 70
     1
102
RTVSPropertyOp29
 70
     1
102
RTVSPropertyOp30
 70
     1
102
RTVSPropertyOp31
 70
     1
102
RTVSPropertyOp32
 70
     1
  0
XRECORD
  5
9FE9
102
{ACAD_REACTORS
330
9FE8
102
}
330
9FE8
100
AcDbXrecord
280
     1
102
RTVSPropertyOp0
 70
     1
102
RTVSPropertyOp1
 70
     1
102
RTVSPropertyOp2
 70
     1
102
RTVSPropertyOp3
 70
     1
102
RTVSPropertyOp4
 70
     1
102
RTVSPropertyOp5
 70
     1
102
RTVSPropertyOp6
 70
     1
102
RTVSPropertyOp7
 70
     1
102
RTVSPropertyOp8
 70
     1
102
RTVSPropertyOp9
 70
     1
102
RTVSPropertyOp10
 70
     1
102
RTVSPropertyOp11
 70
     1
102
RTVSPropertyOp12
 70
     1
102
RTVSPropertyOp13
 70
     1
102
RTVSPropertyOp14
 70
     1
102
RTVSPropertyOp15
 70
     1
102
RTVSPropertyOp16
 70
     1
102
RTVSPropertyOp17
 70
     1
102
RTVSPropertyOp18
 70
     1
102
RTVSPropertyOp19
 70
     1
102
RTVSPropertyOp20
 70
     1
102
RTVSPropertyOp21
 70
     1
102
RTVSPropertyOp22
 70
     1
102
RTVSPropertyOp23
 70
     1
102
RTVSPropertyOp24
 70
     1
102
RTVSPropertyOp25
 70
     1
102
RTVSPropertyOp26
 70
     1
102
RTVSPropertyOp27
 70
     1
102
RTVSPropertyOp28
 70
     1
102
RTVSPropertyOp29
 70
     1
102
RTVSPropertyOp30
 70
     1
102
RTVSPropertyOp31
 70
     1
102
RTVSPropertyOp32
 70
     1
  0
XRECORD
  5
A003
102
{ACAD_REACTORS
330
A002
102
}
330
A002
100
AcDbXrecord
280
     1
102
RTVSPropertyOp0
 70
     0
102
RTVSPropertyOp1
 70
     0
102
RTVSPropertyOp2
 70
     0
102
RTVSPropertyOp3
 70
     0
102
RTVSPropertyOp4
 70
     0
102
RTVSPropertyOp5
 70
     0
102
RTVSPropertyOp6
 70
     0
102
RTVSPropertyOp7
 70
     0
102
RTVSPropertyOp8
 70
     0
102
RTVSPropertyOp9
 70
     0
102
RTVSPropertyOp10
 70
     0
102
RTVSPropertyOp11
 70
     0
102
RTVSPropertyOp12
 70
     0
102
RTVSPropertyOp13
 70
     0
102
RTVSPropertyOp14
 70
     2
102
RTVSPropertyOp15
 70
     0
102
RTVSPropertyOp16
 70
     0
102
RTVSPropertyOp17
 70
     0
102
RTVSPropertyOp18
 70
     0
102
RTVSPropertyOp19
 70
     0
102
RTVSPropertyOp20
 70
     0
102
RTVSPropertyOp21
 70
     0
102
RTVSPropertyOp22
 70
     0
102
RTVSPropertyOp23
 70
     0
102
RTVSPropertyOp24
 70
     0
102
RTVSPropertyOp25
 70
     0
102
RTVSPropertyOp26
 70
     0
102
RTVSPropertyOp27
 70
     0
102
RTVSPropertyOp28
 70
     1
102
RTVSPropertyOp29
 70
     1
102
RTVSPropertyOp30
 70
     1
102
RTVSPropertyOp31
 70
     1
102
RTVSPropertyOp32
 70
     1
  0
XRECORD
  5
9FF1
102
{ACAD_REACTORS
330
9FF0
102
}
330
9FF0
100
AcDbXrecord
280
     1
102
RTVSPropertyOp0
 70
     1
102
RTVSPropertyOp1
 70
     1
102
RTVSPropertyOp2
 70
     1
102
RTVSPropertyOp3
 70
     1
102
RTVSPropertyOp4
 70
     1
102
RTVSPropertyOp5
 70
     1
102
RTVSPropertyOp6
 70
     1
102
RTVSPropertyOp7
 70
     1
102
RTVSPropertyOp8
 70
     1
102
RTVSPropertyOp9
 70
     1
102
RTVSPropertyOp10
 70
     1
102
RTVSPropertyOp11
 70
     1
102
RTVSPropertyOp12
 70
     1
102
RTVSPropertyOp13
 70
     1
102
RTVSPropertyOp14
 70
     1
102
RTVSPropertyOp15
 70
     1
102
RTVSPropertyOp16
 70
     1
102
RTVSPropertyOp17
 70
     1
102
RTVSPropertyOp18
 70
     1
102
RTVSPropertyOp19
 70
     1
102
RTVSPropertyOp20
 70
     1
102
RTVSPropertyOp21
 70
     1
102
RTVSPropertyOp22
 70
     1
102
RTVSPropertyOp23
 70
     1
102
RTVSPropertyOp24
 70
     1
102
RTVSPropertyOp25
 70
     1
102
RTVSPropertyOp26
 70
     1
102
RTVSPropertyOp27
 70
     1
102
RTVSPropertyOp28
 70
     1
102
RTVSPropertyOp29
 70
     1
102
RTVSPropertyOp30
 70
     1
102
RTVSPropertyOp31
 70
     1
102
RTVSPropertyOp32
 70
     1
  0
XRECORD
  5
9FD5
102
{ACAD_REACTORS
330
9FD4
102
}
330
9FD4
100
AcDbXrecord
280
     1
102
RTVSPropertyOp0
 70
     1
102
RTVSPropertyOp1
 70
     1
102
RTVSPropertyOp2
 70
     1
102
RTVSPropertyOp3
 70
     1
102
RTVSPropertyOp4
 70
     1
102
RTVSPropertyOp5
 70
     1
102
RTVSPropertyOp6
 70
     1
102
RTVSPropertyOp7
 70
     1
102
RTVSPropertyOp8
 70
     1
102
RTVSPropertyOp9
 70
     1
102
RTVSPropertyOp10
 70
     1
102
RTVSPropertyOp11
 70
     1
102
RTVSPropertyOp12
 70
     1
102
RTVSPropertyOp13
 70
     1
102
RTVSPropertyOp14
 70
     1
102
RTVSPropertyOp15
 70
     1
102
RTVSPropertyOp16
 70
     1
102
RTVSPropertyOp17
 70
     1
102
RTVSPropertyOp18
 70
     1
102
RTVSPropertyOp19
 70
     1
102
RTVSPropertyOp20
 70
     1
102
RTVSPropertyOp21
 70
     1
102
RTVSPropertyOp22
 70
     1
102
RTVSPropertyOp23
 70
     1
102
RTVSPropertyOp24
 70
     1
102
RTVSPropertyOp25
 70
     1
102
RTVSPropertyOp26
 70
     1
102
RTVSPropertyOp27
 70
     1
102
RTVSPropertyOp28
 70
     1
102
RTVSPropertyOp29
 70
     1
102
RTVSPropertyOp30
 70
     1
102
RTVSPropertyOp31
 70
     1
102
RTVSPropertyOp32
 70
     1
  0
XRECORD
  5
9FD7
102
{ACAD_REACTORS
330
9FD6
102
}
330
9FD6
100
AcDbXrecord
280
     1
102
RTVSPropertyOp0
 70
     1
102
RTVSPropertyOp1
 70
     1
102
RTVSPropertyOp2
 70
     1
102
RTVSPropertyOp3
 70
     1
102
RTVSPropertyOp4
 70
     1
102
RTVSPropertyOp5
 70
     1
102
RTVSPropertyOp6
 70
     1
102
RTVSPropertyOp7
 70
     1
102
RTVSPropertyOp8
 70
     1
102
RTVSPropertyOp9
 70
     1
102
RTVSPropertyOp10
 70
     1
102
RTVSPropertyOp11
 70
     1
102
RTVSPropertyOp12
 70
     1
102
RTVSPropertyOp13
 70
     1
102
RTVSPropertyOp14
 70
     1
102
RTVSPropertyOp15
 70
     1
102
RTVSPropertyOp16
 70
     1
102
RTVSPropertyOp17
 70
     1
102
RTVSPropertyOp18
 70
     1
102
RTVSPropertyOp19
 70
     1
102
RTVSPropertyOp20
 70
     1
102
RTVSPropertyOp21
 70
     1
102
RTVSPropertyOp22
 70
     1
102
RTVSPropertyOp23
 70
     1
102
RTVSPropertyOp24
 70
     1
102
RTVSPropertyOp25
 70
     1
102
RTVSPropertyOp26
 70
     1
102
RTVSPropertyOp27
 70
     1
102
RTVSPropertyOp28
 70
     1
102
RTVSPropertyOp29
 70
     1
102
RTVSPropertyOp30
 70
     1
102
RTVSPropertyOp31
 70
     1
102
RTVSPropertyOp32
 70
     1
  0
XRECORD
  5
9FD9
102
{ACAD_REACTORS
330
9FD8
102
}
330
9FD8
100
AcDbXrecord
280
     1
102
RTVSPropertyOp0
 70
     1
102
RTVSPropertyOp1
 70
     1
102
RTVSPropertyOp2
 70
     1
102
RTVSPropertyOp3
 70
     1
102
RTVSPropertyOp4
 70
     1
102
RTVSPropertyOp5
 70
     1
102
RTVSPropertyOp6
 70
     1
102
RTVSPropertyOp7
 70
     1
102
RTVSPropertyOp8
 70
     1
102
RTVSPropertyOp9
 70
     1
102
RTVSPropertyOp10
 70
     1
102
RTVSPropertyOp11
 70
     1
102
RTVSPropertyOp12
 70
     1
102
RTVSPropertyOp13
 70
     1
102
RTVSPropertyOp14
 70
     1
102
RTVSPropertyOp15
 70
     1
102
RTVSPropertyOp16
 70
     1
102
RTVSPropertyOp17
 70
     1
102
RTVSPropertyOp18
 70
     1
102
RTVSPropertyOp19
 70
     1
102
RTVSPropertyOp20
 70
     1
102
RTVSPropertyOp21
 70
     1
102
RTVSPropertyOp22
 70
     1
102
RTVSPropertyOp23
 70
     1
102
RTVSPropertyOp24
 70
     1
102
RTVSPropertyOp25
 70
     1
102
RTVSPropertyOp26
 70
     1
102
RTVSPropertyOp27
 70
     1
102
RTVSPropertyOp28
 70
     1
102
RTVSPropertyOp29
 70
     1
102
RTVSPropertyOp30
 70
     1
102
RTVSPropertyOp31
 70
     1
102
RTVSPropertyOp32
 70
     1
  0
XRECORD
  5
9FDB
102
{ACAD_REACTORS
330
9FDA
102
}
330
9FDA
100
AcDbXrecord
280
     1
102
RTVSPropertyOp0
 70
     1
102
RTVSPropertyOp1
 70
     1
102
RTVSPropertyOp2
 70
     1
102
RTVSPropertyOp3
 70
     1
102
RTVSPropertyOp4
 70
     1
102
RTVSPropertyOp5
 70
     1
102
RTVSPropertyOp6
 70
     1
102
RTVSPropertyOp7
 70
     1
102
RTVSPropertyOp8
 70
     1
102
RTVSPropertyOp9
 70
     1
102
RTVSPropertyOp10
 70
     1
102
RTVSPropertyOp11
 70
     1
102
RTVSPropertyOp12
 70
     1
102
RTVSPropertyOp13
 70
     1
102
RTVSPropertyOp14
 70
     1
102
RTVSPropertyOp15
 70
     1
102
RTVSPropertyOp16
 70
     1
102
RTVSPropertyOp17
 70
     1
102
RTVSPropertyOp18
 70
     1
102
RTVSPropertyOp19
 70
     1
102
RTVSPropertyOp20
 70
     1
102
RTVSPropertyOp21
 70
     1
102
RTVSPropertyOp22
 70
     1
102
RTVSPropertyOp23
 70
     1
102
RTVSPropertyOp24
 70
     1
102
RTVSPropertyOp25
 70
     1
102
RTVSPropertyOp26
 70
     1
102
RTVSPropertyOp27
 70
     1
102
RTVSPropertyOp28
 70
     1
102
RTVSPropertyOp29
 70
     1
102
RTVSPropertyOp30
 70
     1
102
RTVSPropertyOp31
 70
     1
102
RTVSPropertyOp32
 70
     1
  0
XRECORD
  5
9FE3
102
{ACAD_REACTORS
330
9FE2
102
}
330
9FE2
100
AcDbXrecord
280
     1
102
RTVSPropertyOp0
 70
     1
102
RTVSPropertyOp1
 70
     1
102
RTVSPropertyOp2
 70
     1
102
RTVSPropertyOp3
 70
     1
102
RTVSPropertyOp4
 70
     1
102
RTVSPropertyOp5
 70
     1
102
RTVSPropertyOp6
 70
     1
102
RTVSPropertyOp7
 70
     1
102
RTVSPropertyOp8
 70
     1
102
RTVSPropertyOp9
 70
     1
102
RTVSPropertyOp10
 70
     1
102
RTVSPropertyOp11
 70
     1
102
RTVSPropertyOp12
 70
     1
102
RTVSPropertyOp13
 70
     1
102
RTVSPropertyOp14
 70
     1
102
RTVSPropertyOp15
 70
     1
102
RTVSPropertyOp16
 70
     1
102
RTVSPropertyOp17
 70
     1
102
RTVSPropertyOp18
 70
     1
102
RTVSPropertyOp19
 70
     1
102
RTVSPropertyOp20
 70
     1
102
RTVSPropertyOp21
 70
     1
102
RTVSPropertyOp22
 70
     1
102
RTVSPropertyOp23
 70
     1
102
RTVSPropertyOp24
 70
     1
102
RTVSPropertyOp25
 70
     1
102
RTVSPropertyOp26
 70
     1
102
RTVSPropertyOp27
 70
     1
102
RTVSPropertyOp28
 70
     1
102
RTVSPropertyOp29
 70
     1
102
RTVSPropertyOp30
 70
     1
102
RTVSPropertyOp31
 70
     1
102
RTVSPropertyOp32
 70
     1
  0
XRECORD
  5
9FFF
102
{ACAD_REACTORS
330
9FFE
102
}
330
9FFE
100
AcDbXrecord
280
     1
102
RTVSPropertyOp0
 70
     0
102
RTVSPropertyOp1
 70
     0
102
RTVSPropertyOp2
 70
     0
102
RTVSPropertyOp3
 70
     0
102
RTVSPropertyOp4
 70
     0
102
RTVSPropertyOp5
 70
     0
102
RTVSPropertyOp6
 70
     0
102
RTVSPropertyOp7
 70
     0
102
RTVSPropertyOp8
 70
     0
102
RTVSPropertyOp9
 70
     0
102
RTVSPropertyOp10
 70
     0
102
RTVSPropertyOp11
 70
     0
102
RTVSPropertyOp12
 70
     0
102
RTVSPropertyOp13
 70
     0
102
RTVSPropertyOp14
 70
     2
102
RTVSPropertyOp15
 70
     0
102
RTVSPropertyOp16
 70
     0
102
RTVSPropertyOp17
 70
     0
102
RTVSPropertyOp18
 70
     0
102
RTVSPropertyOp19
 70
     0
102
RTVSPropertyOp20
 70
     0
102
RTVSPropertyOp21
 70
     0
102
RTVSPropertyOp22
 70
     0
102
RTVSPropertyOp23
 70
     0
102
RTVSPropertyOp24
 70
     0
102
RTVSPropertyOp25
 70
     0
102
RTVSPropertyOp26
 70
     0
102
RTVSPropertyOp27
 70
     0
102
RTVSPropertyOp28
 70
     1
102
RTVSPropertyOp29
 70
     1
102
RTVSPropertyOp30
 70
     1
102
RTVSPropertyOp31
 70
     1
102
RTVSPropertyOp32
 70
     1
  0
XRECORD
  5
9FEF
102
{ACAD_REACTORS
330
9FEE
102
}
330
9FEE
100
AcDbXrecord
280
     1
102
RTVSPropertyOp0
 70
     1
102
RTVSPropertyOp1
 70
     1
102
RTVSPropertyOp2
 70
     1
102
RTVSPropertyOp3
 70
     1
102
RTVSPropertyOp4
 70
     1
102
RTVSPropertyOp5
 70
     1
102
RTVSPropertyOp6
 70
     1
102
RTVSPropertyOp7
 70
     1
102
RTVSPropertyOp8
 70
     1
102
RTVSPropertyOp9
 70
     1
102
RTVSPropertyOp10
 70
     1
102
RTVSPropertyOp11
 70
     1
102
RTVSPropertyOp12
 70
     1
102
RTVSPropertyOp13
 70
     1
102
RTVSPropertyOp14
 70
     1
102
RTVSPropertyOp15
 70
     1
102
RTVSPropertyOp16
 70
     1
102
RTVSPropertyOp17
 70
     1
102
RTVSPropertyOp18
 70
     1
102
RTVSPropertyOp19
 70
     1
102
RTVSPropertyOp20
 70
     1
102
RTVSPropertyOp21
 70
     1
102
RTVSPropertyOp22
 70
     1
102
RTVSPropertyOp23
 70
     1
102
RTVSPropertyOp24
 70
     1
102
RTVSPropertyOp25
 70
     1
102
RTVSPropertyOp26
 70
     1
102
RTVSPropertyOp27
 70
     1
102
RTVSPropertyOp28
 70
     1
102
RTVSPropertyOp29
 70
     1
102
RTVSPropertyOp30
 70
     1
102
RTVSPropertyOp31
 70
     1
102
RTVSPropertyOp32
 70
     1
  0
XRECORD
  5
A001
102
{ACAD_REACTORS
330
A000
102
}
330
A000
100
AcDbXrecord
280
     1
102
RTVSPropertyOp0
 70
     0
102
RTVSPropertyOp1
 70
     0
102
RTVSPropertyOp2
 70
     0
102
RTVSPropertyOp3
 70
     0
102
RTVSPropertyOp4
 70
     0
102
RTVSPropertyOp5
 70
     0
102
RTVSPropertyOp6
 70
     0
102
RTVSPropertyOp7
 70
     0
102
RTVSPropertyOp8
 70
     0
102
RTVSPropertyOp9
 70
     0
102
RTVSPropertyOp10
 70
     0
102
RTVSPropertyOp11
 70
     0
102
RTVSPropertyOp12
 70
     0
102
RTVSPropertyOp13
 70
     0
102
RTVSPropertyOp14
 70
     2
102
RTVSPropertyOp15
 70
     0
102
RTVSPropertyOp16
 70
     0
102
RTVSPropertyOp17
 70
     0
102
RTVSPropertyOp18
 70
     0
102
RTVSPropertyOp19
 70
     0
102
RTVSPropertyOp20
 70
     0
102
RTVSPropertyOp21
 70
     0
102
RTVSPropertyOp22
 70
     0
102
RTVSPropertyOp23
 70
     0
102
RTVSPropertyOp24
 70
     0
102
RTVSPropertyOp25
 70
     0
102
RTVSPropertyOp26
 70
     0
102
RTVSPropertyOp27
 70
     0
102
RTVSPropertyOp28
 70
     1
102
RTVSPropertyOp29
 70
     1
102
RTVSPropertyOp30
 70
     1
102
RTVSPropertyOp31
 70
     1
102
RTVSPropertyOp32
 70
     1
  0
XRECORD
  5
9FE7
102
{ACAD_REACTORS
330
9FE6
102
}
330
9FE6
100
AcDbXrecord
280
     1
102
RTVSPropertyOp0
 70
     1
102
RTVSPropertyOp1
 70
     1
102
RTVSPropertyOp2
 70
     1
102
RTVSPropertyOp3
 70
     1
102
RTVSPropertyOp4
 70
     1
102
RTVSPropertyOp5
 70
     1
102
RTVSPropertyOp6
 70
     1
102
RTVSPropertyOp7
 70
     1
102
RTVSPropertyOp8
 70
     1
102
RTVSPropertyOp9
 70
     1
102
RTVSPropertyOp10
 70
     1
102
RTVSPropertyOp11
 70
     1
102
RTVSPropertyOp12
 70
     1
102
RTVSPropertyOp13
 70
     1
102
RTVSPropertyOp14
 70
     1
102
RTVSPropertyOp15
 70
     1
102
RTVSPropertyOp16
 70
     1
102
RTVSPropertyOp17
 70
     1
102
RTVSPropertyOp18
 70
     1
102
RTVSPropertyOp19
 70
     1
102
RTVSPropertyOp20
 70
     1
102
RTVSPropertyOp21
 70
     1
102
RTVSPropertyOp22
 70
     1
102
RTVSPropertyOp23
 70
     1
102
RTVSPropertyOp24
 70
     1
102
RTVSPropertyOp25
 70
     1
102
RTVSPropertyOp26
 70
     1
102
RTVSPropertyOp27
 70
     1
102
RTVSPropertyOp28
 70
     1
102
RTVSPropertyOp29
 70
     1
102
RTVSPropertyOp30
 70
     1
102
RTVSPropertyOp31
 70
     1
102
RTVSPropertyOp32
 70
     1
  0
XRECORD
  5
9FFD
102
{ACAD_REACTORS
330
9FFC
102
}
330
9FFC
100
AcDbXrecord
280
     1
102
RTVSPropertyOp0
 70
     1
102
RTVSPropertyOp1
 70
     1
102
RTVSPropertyOp2
 70
     1
102
RTVSPropertyOp3
 70
     1
102
RTVSPropertyOp4
 70
     1
102
RTVSPropertyOp5
 70
     1
102
RTVSPropertyOp6
 70
     1
102
RTVSPropertyOp7
 70
     1
102
RTVSPropertyOp8
 70
     1
102
RTVSPropertyOp9
 70
     1
102
RTVSPropertyOp10
 70
     1
102
RTVSPropertyOp11
 70
     1
102
RTVSPropertyOp12
 70
     1
102
RTVSPropertyOp13
 70
     1
102
RTVSPropertyOp14
 70
     1
102
RTVSPropertyOp15
 70
     1
102
RTVSPropertyOp16
 70
     1
102
RTVSPropertyOp17
 70
     1
102
RTVSPropertyOp18
 70
     1
102
RTVSPropertyOp19
 70
     1
102
RTVSPropertyOp20
 70
     1
102
RTVSPropertyOp21
 70
     1
102
RTVSPropertyOp22
 70
     1
102
RTVSPropertyOp23
 70
     1
102
RTVSPropertyOp24
 70
     1
102
RTVSPropertyOp25
 70
     1
102
RTVSPropertyOp26
 70
     1
102
RTVSPropertyOp27
 70
     1
102
RTVSPropertyOp28
 70
     1
102
RTVSPropertyOp29
 70
     1
102
RTVSPropertyOp30
 70
     1
102
RTVSPropertyOp31
 70
     1
102
RTVSPropertyOp32
 70
     1
  0
XRECORD
  5
9FFB
102
{ACAD_REACTORS
330
9FFA
102
}
330
9FFA
100
AcDbXrecord
280
     1
102
RTVSPropertyOp0
 70
     1
102
RTVSPropertyOp1
 70
     1
102
RTVSPropertyOp2
 70
     1
102
RTVSPropertyOp3
 70
     1
102
RTVSPropertyOp4
 70
     1
102
RTVSPropertyOp5
 70
     1
102
RTVSPropertyOp6
 70
     1
102
RTVSPropertyOp7
 70
     1
102
RTVSPropertyOp8
 70
     1
102
RTVSPropertyOp9
 70
     1
102
RTVSPropertyOp10
 70
     1
102
RTVSPropertyOp11
 70
     1
102
RTVSPropertyOp12
 70
     1
102
RTVSPropertyOp13
 70
     1
102
RTVSPropertyOp14
 70
     1
102
RTVSPropertyOp15
 70
     1
102
RTVSPropertyOp16
 70
     1
102
RTVSPropertyOp17
 70
     1
102
RTVSPropertyOp18
 70
     1
102
RTVSPropertyOp19
 70
     1
102
RTVSPropertyOp20
 70
     1
102
RTVSPropertyOp21
 70
     1
102
RTVSPropertyOp22
 70
     1
102
RTVSPropertyOp23
 70
     1
102
RTVSPropertyOp24
 70
     1
102
RTVSPropertyOp25
 70
     1
102
RTVSPropertyOp26
 70
     1
102
RTVSPropertyOp27
 70
     1
102
RTVSPropertyOp28
 70
     1
102
RTVSPropertyOp29
 70
     1
102
RTVSPropertyOp30
 70
     1
102
RTVSPropertyOp31
 70
     1
102
RTVSPropertyOp32
 70
     1
  0
XRECORD
  5
9FF5
102
{ACAD_REACTORS
330
9FF4
102
}
330
9FF4
100
AcDbXrecord
280
     1
102
RTVSPropertyOp0
 70
     1
102
RTVSPropertyOp1
 70
     1
102
RTVSPropertyOp2
 70
     1
102
RTVSPropertyOp3
 70
     1
102
RTVSPropertyOp4
 70
     1
102
RTVSPropertyOp5
 70
     1
102
RTVSPropertyOp6
 70
     1
102
RTVSPropertyOp7
 70
     1
102
RTVSPropertyOp8
 70
     1
102
RTVSPropertyOp9
 70
     1
102
RTVSPropertyOp10
 70
     1
102
RTVSPropertyOp11
 70
     1
102
RTVSPropertyOp12
 70
     1
102
RTVSPropertyOp13
 70
     1
102
RTVSPropertyOp14
 70
     1
102
RTVSPropertyOp15
 70
     1
102
RTVSPropertyOp16
 70
     1
102
RTVSPropertyOp17
 70
     1
102
RTVSPropertyOp18
 70
     1
102
RTVSPropertyOp19
 70
     1
102
RTVSPropertyOp20
 70
     1
102
RTVSPropertyOp21
 70
     1
102
RTVSPropertyOp22
 70
     1
102
RTVSPropertyOp23
 70
     1
102
RTVSPropertyOp24
 70
     1
102
RTVSPropertyOp25
 70
     1
102
RTVSPropertyOp26
 70
     1
102
RTVSPropertyOp27
 70
     1
102
RTVSPropertyOp28
 70
     1
102
RTVSPropertyOp29
 70
     1
102
RTVSPropertyOp30
 70
     1
102
RTVSPropertyOp31
 70
     1
102
RTVSPropertyOp32
 70
     1
  0
XRECORD
  5
9FF7
102
{ACAD_REACTORS
330
9FF6
102
}
330
9FF6
100
AcDbXrecord
280
     1
102
RTVSPropertyOp0
 70
     1
102
RTVSPropertyOp1
 70
     1
102
RTVSPropertyOp2
 70
     1
102
RTVSPropertyOp3
 70
     1
102
RTVSPropertyOp4
 70
     1
102
RTVSPropertyOp5
 70
     1
102
RTVSPropertyOp6
 70
     1
102
RTVSPropertyOp7
 70
     1
102
RTVSPropertyOp8
 70
     1
102
RTVSPropertyOp9
 70
     1
102
RTVSPropertyOp10
 70
     1
102
RTVSPropertyOp11
 70
     1
102
RTVSPropertyOp12
 70
     1
102
RTVSPropertyOp13
 70
     1
102
RTVSPropertyOp14
 70
     1
102
RTVSPropertyOp15
 70
     1
102
RTVSPropertyOp16
 70
     1
102
RTVSPropertyOp17
 70
     1
102
RTVSPropertyOp18
 70
     1
102
RTVSPropertyOp19
 70
     1
102
RTVSPropertyOp20
 70
     1
102
RTVSPropertyOp21
 70
     1
102
RTVSPropertyOp22
 70
     1
102
RTVSPropertyOp23
 70
     1
102
RTVSPropertyOp24
 70
     1
102
RTVSPropertyOp25
 70
     1
102
RTVSPropertyOp26
 70
     1
102
RTVSPropertyOp27
 70
     1
102
RTVSPropertyOp28
 70
     1
102
RTVSPropertyOp29
 70
     1
102
RTVSPropertyOp30
 70
     1
102
RTVSPropertyOp31
 70
     1
102
RTVSPropertyOp32
 70
     1
  0
XRECORD
  5
9FED
102
{ACAD_REACTORS
330
9FEC
102
}
330
9FEC
100
AcDbXrecord
280
     1
102
RTVSPropertyOp0
 70
     1
102
RTVSPropertyOp1
 70
     1
102
RTVSPropertyOp2
 70
     1
102
RTVSPropertyOp3
 70
     1
102
RTVSPropertyOp4
 70
     1
102
RTVSPropertyOp5
 70
     1
102
RTVSPropertyOp6
 70
     1
102
RTVSPropertyOp7
 70
     1
102
RTVSPropertyOp8
 70
     1
102
RTVSPropertyOp9
 70
     1
102
RTVSPropertyOp10
 70
     1
102
RTVSPropertyOp11
 70
     1
102
RTVSPropertyOp12
 70
     1
102
RTVSPropertyOp13
 70
     1
102
RTVSPropertyOp14
 70
     1
102
RTVSPropertyOp15
 70
     1
102
RTVSPropertyOp16
 70
     1
102
RTVSPropertyOp17
 70
     1
102
RTVSPropertyOp18
 70
     1
102
RTVSPropertyOp19
 70
     1
102
RTVSPropertyOp20
 70
     1
102
RTVSPropertyOp21
 70
     1
102
RTVSPropertyOp22
 70
     1
102
RTVSPropertyOp23
 70
     1
102
RTVSPropertyOp24
 70
     1
102
RTVSPropertyOp25
 70
     1
102
RTVSPropertyOp26
 70
     1
102
RTVSPropertyOp27
 70
     1
102
RTVSPropertyOp28
 70
     1
102
RTVSPropertyOp29
 70
     1
102
RTVSPropertyOp30
 70
     1
102
RTVSPropertyOp31
 70
     1
102
RTVSPropertyOp32
 70
     1
  0
XRECORD
  5
9FE1
102
{ACAD_REACTORS
330
9FE0
102
}
330
9FE0
100
AcDbXrecord
280
     1
102
RTVSPropertyOp0
 70
     1
102
RTVSPropertyOp1
 70
     1
102
RTVSPropertyOp2
 70
     1
102
RTVSPropertyOp3
 70
     1
102
RTVSPropertyOp4
 70
     1
102
RTVSPropertyOp5
 70
     1
102
RTVSPropertyOp6
 70
     1
102
RTVSPropertyOp7
 70
     1
102
RTVSPropertyOp8
 70
     1
102
RTVSPropertyOp9
 70
     1
102
RTVSPropertyOp10
 70
     1
102
RTVSPropertyOp11
 70
     1
102
RTVSPropertyOp12
 70
     1
102
RTVSPropertyOp13
 70
     1
102
RTVSPropertyOp14
 70
     1
102
RTVSPropertyOp15
 70
     1
102
RTVSPropertyOp16
 70
     1
102
RTVSPropertyOp17
 70
     1
102
RTVSPropertyOp18
 70
     1
102
RTVSPropertyOp19
 70
     1
102
RTVSPropertyOp20
 70
     1
102
RTVSPropertyOp21
 70
     1
102
RTVSPropertyOp22
 70
     1
102
RTVSPropertyOp23
 70
     1
102
RTVSPropertyOp24
 70
     1
102
RTVSPropertyOp25
 70
     1
102
RTVSPropertyOp26
 70
     1
102
RTVSPropertyOp27
 70
     1
102
RTVSPropertyOp28
 70
     1
102
RTVSPropertyOp29
 70
     1
102
RTVSPropertyOp30
 70
     1
102
RTVSPropertyOp31
 70
     1
102
RTVSPropertyOp32
 70
     1
  0
XRECORD
  5
9FF9
102
{ACAD_REACTORS
330
9FF8
102
}
330
9FF8
100
AcDbXrecord
280
     1
102
RTVSPropertyOp0
 70
     1
102
RTVSPropertyOp1
 70
     1
102
RTVSPropertyOp2
 70
     1
102
RTVSPropertyOp3
 70
     1
102
RTVSPropertyOp4
 70
     1
102
RTVSPropertyOp5
 70
     1
102
RTVSPropertyOp6
 70
     1
102
RTVSPropertyOp7
 70
     1
102
RTVSPropertyOp8
 70
     1
102
RTVSPropertyOp9
 70
     1
102
RTVSPropertyOp10
 70
     1
102
RTVSPropertyOp11
 70
     1
102
RTVSPropertyOp12
 70
     1
102
RTVSPropertyOp13
 70
     1
102
RTVSPropertyOp14
 70
     1
102
RTVSPropertyOp15
 70
     1
102
RTVSPropertyOp16
 70
     1
102
RTVSPropertyOp17
 70
     1
102
RTVSPropertyOp18
 70
     1
102
RTVSPropertyOp19
 70
     1
102
RTVSPropertyOp20
 70
     1
102
RTVSPropertyOp21
 70
     1
102
RTVSPropertyOp22
 70
     1
102
RTVSPropertyOp23
 70
     1
102
RTVSPropertyOp24
 70
     1
102
RTVSPropertyOp25
 70
     1
102
RTVSPropertyOp26
 70
     1
102
RTVSPropertyOp27
 70
     1
102
RTVSPropertyOp28
 70
     1
102
RTVSPropertyOp29
 70
     1
102
RTVSPropertyOp30
 70
     1
102
RTVSPropertyOp31
 70
     1
102
RTVSPropertyOp32
 70
     1
  0
ENDSEC
  0
EOF
